<?xml version="1.0" standalone="no"?>
<!DOCTYPE svg PUBLIC "-//W3C//DTD SVG 1.1//EN" "http://www.w3.org/Graphics/SVG/1.1/DTD/svg11.dtd" >
<svg xmlns="http://www.w3.org/2000/svg">
<metadata>Generated by IcoMoon</metadata>
<defs>
<font id="icomoon" horiz-adv-x="1024">
<font-face units-per-em="1024" ascent="960" descent="-64" />
<missing-glyph horiz-adv-x="1024" />
<glyph unicode="&#x20;" horiz-adv-x="512" d="" />
<glyph unicode="&#xe900;" glyph-name="arrows-1_back-78" d="M896 896h-768v-128h704v-384h-550.4l192 192-89.6 89.6-345.6-345.6 345.6-345.6 89.6 89.6-192 192h614.4c38.4 0 64 25.6 64 64v512c0 38.4-25.6 64-64 64z" />
<glyph unicode="&#xe901;" glyph-name="arrows-1_back-80" d="M640 896h-512v-128h512c108.8 0 192-83.2 192-192s-83.2-192-192-192h-358.4l192 192-89.6 89.6-345.6-345.6 345.6-345.6 89.6 89.6-192 192h358.4c179.2 0 320 140.8 320 320s-140.8 320-320 320z" />
<glyph unicode="&#xe902;" glyph-name="arrows-1_bold-down" d="M1024 601.6l-204.8 204.8-307.2-307.2-307.2 307.2-204.8-204.8 512-512z" />
<glyph unicode="&#xe903;" glyph-name="arrows-1_bold-left" d="M665.6-64l204.8 204.8-307.2 307.2 307.2 307.2-204.8 204.8-512-512z" />
<glyph unicode="&#xe904;" glyph-name="arrows-1_bold-right" d="M358.4 960l-204.8-204.8 307.2-307.2-307.2-307.2 204.8-204.8 512 512z" />
<glyph unicode="&#xe905;" glyph-name="arrows-1_bold-up" d="M0 294.4l204.8-204.8 307.2 307.2 307.2-307.2 204.8 204.8-512 512z" />
<glyph unicode="&#xe906;" glyph-name="arrows-1_circle-down-12" d="M512 960c-281.6 0-512-230.4-512-512s230.4-512 512-512 512 230.4 512 512-230.4 512-512 512zM512 320l-192 256h384l-192-256z" />
<glyph unicode="&#xe907;" glyph-name="arrows-1_circle-down-40" d="M512 960c-281.6 0-512-230.4-512-512s230.4-512 512-512 512 230.4 512 512-230.4 512-512 512zM512 294.4l-217.6 217.6 89.6 89.6 128-128 128 128 89.6-89.6-217.6-217.6z" />
<glyph unicode="&#xe908;" glyph-name="arrows-1_circle-left-10" d="M512 960c-281.6 0-512-230.4-512-512s230.4-512 512-512 512 230.4 512 512-230.4 512-512 512zM640 256l-256 192 256 192v-384z" />
<glyph unicode="&#xe909;" glyph-name="arrows-1_circle-left-38" d="M512 960c-281.6 0-512-230.4-512-512s230.4-512 512-512 512 230.4 512 512-230.4 512-512 512zM665.6 320l-89.6-89.6-217.6 217.6 217.6 217.6 89.6-89.6-128-128 128-128z" />
<glyph unicode="&#xe90a;" glyph-name="arrows-1_circle-right-09" d="M512 960c-281.6 0-512-230.4-512-512s230.4-512 512-512 512 230.4 512 512-230.4 512-512 512zM384 256v384l256-192-256-192z" />
<glyph unicode="&#xe90b;" glyph-name="arrows-1_circle-right-37" d="M512 960c-281.6 0-512-230.4-512-512s230.4-512 512-512 512 230.4 512 512-230.4 512-512 512zM448 230.4l-89.6 89.6 128 128-128 128 89.6 89.6 217.6-217.6-217.6-217.6z" />
<glyph unicode="&#xe90c;" glyph-name="arrows-1_circle-up-11" d="M512 960c-281.6 0-512-230.4-512-512s230.4-512 512-512 512 230.4 512 512-230.4 512-512 512zM320 320l192 256 192-256h-384z" />
<glyph unicode="&#xe90d;" glyph-name="arrows-1_circle-up-39" d="M512 960c-281.6 0-512-230.4-512-512s230.4-512 512-512 512 230.4 512 512-230.4 512-512 512zM640 294.4l-128 128-128-128-89.6 89.6 217.6 217.6 217.6-217.6-89.6-89.6z" />
<glyph unicode="&#xe90e;" glyph-name="arrows-1_cloud-download-95" d="M832 505.6c0 0 0 6.4 0 6.4 0 179.2-140.8 320-320 320-160 0-294.4-115.2-313.6-275.2-115.2-38.4-198.4-140.8-198.4-268.8 0-160 128-288 288-288 108.8 0 377.6 0 480 0 140.8 0 256 115.2 256 256 0 121.6-83.2 217.6-192 249.6zM512 128l-256 256h192v192h128v-192h192l-256-256z" />
<glyph unicode="&#xe90f;" glyph-name="arrows-1_cloud-upload-96" d="M832 505.6c0 0 0 6.4 0 6.4 0 179.2-140.8 320-320 320-160 0-294.4-115.2-313.6-275.2-115.2-38.4-198.4-140.8-198.4-268.8 0-160 128-288 288-288 108.8 0 377.6 0 480 0 140.8 0 256 115.2 256 256 0 121.6-83.2 217.6-192 249.6zM576 320v-192h-128v192h-192l256 256 256-256h-192z" />
<glyph unicode="&#xe910;" glyph-name="arrows-1_curved-next" d="M512 640c-332.8 0-512-243.2-512-640 96 153.6 172.8 256 512 256v-256l512 448-512 448v-256z" />
<glyph unicode="&#xe911;" glyph-name="arrows-1_curved-previous" d="M512 640c332.8 0 512-243.2 512-640-96 153.6-172.8 256-512 256v-256l-512 448 512 448v-256z" />
<glyph unicode="&#xe912;" glyph-name="arrows-1_direction-53" d="M64 640h742.4l-83.2-83.2c-25.6-25.6-25.6-64 0-89.6 12.8-12.8 25.6-19.2 44.8-19.2s32 6.4 44.8 19.2l192 192c25.6 25.6 25.6 64 0 89.6l-192 192c-25.6 25.6-64 25.6-89.6 0s-25.6-64 0-89.6l83.2-83.2h-742.4c-38.4 0-64-25.6-64-64s25.6-64 64-64zM960 256h-742.4l83.2 83.2c25.6 25.6 25.6 64 0 89.6s-64 25.6-89.6 0l-192-192c-25.6-25.6-25.6-64 0-89.6l192-192c12.8-12.8 25.6-19.2 44.8-19.2s32 6.4 44.8 19.2c25.6 25.6 25.6 64 0 89.6l-83.2 83.2h742.4c38.4 0 64 25.6 64 64s-25.6 64-64 64z" />
<glyph unicode="&#xe913;" glyph-name="arrows-1_direction-56" d="M704 768h-640c-38.4 0-64-25.6-64-64v0c0-38.4 25.6-64 64-64h640v-192l320 256-320 256v-192zM320 128h640c38.4 0 64 25.6 64 64v0c0 38.4-25.6 64-64 64h-640v192l-320-256 320-256v192z" />
<glyph unicode="&#xe914;" glyph-name="arrows-1_double-left" d="M896-64c-19.2 0-38.4 6.4-51.2 19.2l-384 448c-19.2 25.6-19.2 57.6 0 83.2l384 448c25.6 25.6 64 32 89.6 6.4s32-64 6.4-89.6l-345.6-403.2 345.6-403.2c25.6-25.6 19.2-64-6.4-89.6-6.4-12.8-25.6-19.2-38.4-19.2zM512-64c-19.2 0-38.4 6.4-51.2 19.2l-384 448c-19.2 25.6-19.2 57.6 0 83.2l384 448c25.6 25.6 64 32 89.6 6.4s32-64 6.4-89.6l-345.6-403.2 345.6-403.2c25.6-25.6 19.2-64-6.4-89.6-6.4-12.8-25.6-19.2-38.4-19.2z" />
<glyph unicode="&#xe915;" glyph-name="arrows-1_double-right" d="M128-64c-12.8 0-32 6.4-44.8 12.8-25.6 25.6-32 64-6.4 89.6l352 409.6-352 403.2c-25.6 25.6-19.2 64 6.4 89.6s64 19.2 89.6-6.4l384-448c19.2-25.6 19.2-57.6 0-83.2l-384-448c-6.4-12.8-25.6-19.2-44.8-19.2zM512-64c-12.8 0-32 6.4-44.8 12.8-25.6 25.6-32 64-6.4 89.6l352 409.6-352 403.2c-25.6 25.6-19.2 64 6.4 89.6s70.4 19.2 89.6-6.4l384-448c19.2-25.6 19.2-57.6 0-83.2l-384-448c-6.4-12.8-25.6-19.2-44.8-19.2z" />
<glyph unicode="&#xe916;" glyph-name="arrows-1_download" d="M576 448v448h-128v-448h-153.6l217.6-256 217.6 256zM960-64h-896c-38.4 0-64 25.6-64 64v576c0 38.4 25.6 64 64 64h192v-128h-128v-448h768v448h-128v128h192c38.4 0 64-25.6 64-64v-576c0-38.4-25.6-64-64-64z" />
<glyph unicode="&#xe917;" glyph-name="arrows-1_enlarge-diagonal-43" d="M384 768h358.4l-550.4-550.4v358.4h-128v-576h576v128h-358.4l550.4 550.4v-358.4h128v576h-576z" />
<glyph unicode="&#xe918;" glyph-name="arrows-1_enlarge-diagonal-44" d="M832 576v-358.4l-550.4 550.4h358.4v128h-576v-576h128v358.4l550.4-550.4h-358.4v-128h576v576z" />
<glyph unicode="&#xe919;" glyph-name="arrows-1_enlarge-horizontal" d="M704 768l-89.6-89.6 166.4-166.4h-537.6l166.4 166.4-89.6 89.6-320-320 320-320 89.6 89.6-166.4 166.4h537.6l-166.4-166.4 89.6-89.6 320 320z" />
<glyph unicode="&#xe91a;" glyph-name="arrows-1_enlarge-vertical" d="M832 256l-89.6 89.6-166.4-166.4v537.6l166.4-166.4 89.6 89.6-320 320-320-320 89.6-89.6 166.4 166.4v-537.6l-166.4 166.4-89.6-89.6 320-320z" />
<glyph unicode="&#xe91b;" glyph-name="arrows-1_fullscreen-70" d="M1024 448v512h-512l211.2-211.2-512-512-211.2 211.2v-512h512l-211.2 211.2 512 512z" />
<glyph unicode="&#xe91c;" glyph-name="arrows-1_fullscreen-71" d="M300.8 748.8l211.2 211.2h-512v-512l211.2 211.2 512-512-211.2-211.2h512v512l-211.2-211.2z" />
<glyph unicode="&#xe91d;" glyph-name="arrows-1_fullscreen-76" d="M0 512l179.2 179.2 160-160 89.6 89.6-160 160 179.2 179.2h-448zM576 960l179.2-179.2-160-160 89.6-89.6 160 160 179.2-179.2v448zM428.8 275.2l-89.6 89.6-160-160-179.2 179.2v-448h448l-179.2 179.2zM684.8 364.8l-89.6-89.6 160-160-179.2-179.2h448v448l-179.2-179.2z" />
<glyph unicode="&#xe91e;" glyph-name="arrows-1_fullscreen-77" d="M576 960v-128h230.4l-211.2-211.2 89.6-89.6 211.2 211.2v-230.4h128v448zM428.8 275.2l-89.6 89.6-211.2-211.2v230.4h-128v-448h448v128h-230.4zM0 512h128v230.4l211.2-211.2 89.6 89.6-211.2 211.2h230.4v128h-448zM896 153.6l-211.2 211.2-89.6-89.6 211.2-211.2h-230.4v-128h448v448h-128z" />
<glyph unicode="&#xe91f;" glyph-name="arrows-1_fullscreen-double-74" d="M576 832h230.4l-256-256 89.6-89.6 256 256v-230.4h128v448h-448zM384 409.6l-256-256v230.4h-128v-448h448v128h-230.4l256 256z" />
<glyph unicode="&#xe920;" glyph-name="arrows-1_fullscreen-double-75" d="M448 832v128h-448v-448h128v230.4l256-256 89.6 89.6-256 256zM896 384v-230.4l-256 256-89.6-89.6 256-256h-230.4v-128h448v448z" />
<glyph unicode="&#xe921;" glyph-name="arrows-1_fullscreen-split-72" d="M473.6 320l-89.6 89.6-172.8-172.8-211.2 211.2v-512h512l-211.2 211.2zM723.2 748.8l-172.8-172.8 89.6-89.6 172.8 172.8 211.2-211.2v512h-512z" />
<glyph unicode="&#xe922;" glyph-name="arrows-1_fullscreen-split-73" d="M640 409.6l-89.6-89.6 172.8-172.8-211.2-211.2h512v512l-211.2-211.2zM512 960h-512v-512l211.2 211.2 172.8-172.8 89.6 89.6-172.8 172.8z" />
<glyph unicode="&#xe923;" glyph-name="arrows-1_log-in" d="M512 192l256 256-256 256v-192h-512v-128h512zM960-64h-576c-38.4 0-64 25.6-64 64v192h128v-128h448v768h-448v-128h-128v192c0 38.4 25.6 64 64 64h576c38.4 0 64-25.6 64-64v-896c0-38.4-25.6-64-64-64z" />
<glyph unicode="&#xe924;" glyph-name="arrows-1_log-out" d="M256 704l-256-256 256-256v192h384v128h-384zM960-64h-576c-38.4 0-64 25.6-64 64v192h128v-128h448v768h-448v-128h-128v192c0 38.4 25.6 64 64 64h576c38.4 0 64-25.6 64-64v-896c0-38.4-25.6-64-64-64z" />
<glyph unicode="&#xe925;" glyph-name="arrows-1_loop-82" d="M128 640h678.4l-83.2-83.2c-25.6-25.6-25.6-64 0-89.6 12.8-12.8 25.6-19.2 44.8-19.2s32 6.4 44.8 19.2l192 192c25.6 25.6 25.6 64 0 89.6l-192 192c-25.6 25.6-64 25.6-89.6 0s-25.6-64 0-89.6l83.2-83.2h-742.4c-38.4 0-64-25.6-64-64v-192h128v128zM896 256h-678.4l83.2 83.2c25.6 25.6 25.6 64 0 89.6s-64 25.6-89.6 0l-192-192c-25.6-25.6-25.6-64 0-89.6l192-192c12.8-12.8 25.6-19.2 44.8-19.2s32 6.4 44.8 19.2c25.6 25.6 25.6 64 0 89.6l-83.2 83.2h742.4c38.4 0 64 25.6 64 64v192h-128v-128z" />
<glyph unicode="&#xe926;" glyph-name="arrows-1_minimal-down" d="M512 153.6l-492.8 492.8 89.6 96 403.2-403.2 403.2 403.2 89.6-96z" />
<glyph unicode="&#xe927;" glyph-name="arrows-1_minimal-left" d="M710.4-44.8l-492.8 492.8 492.8 492.8 96-89.6-403.2-403.2 403.2-403.2z" />
<glyph unicode="&#xe928;" glyph-name="arrows-1_minimal-right" d="M313.6-44.8l-96 89.6 403.2 403.2-403.2 403.2 96 89.6 492.8-492.8z" />
<glyph unicode="&#xe929;" glyph-name="arrows-1_minimal-up" d="M915.2 153.6l-403.2 403.2-403.2-403.2-89.6 96 492.8 492.8 492.8-492.8z" />
<glyph unicode="&#xe92a;" glyph-name="arrows-1_redo-79" d="M640 665.6l-89.6-89.6 192-192h-550.4v384h704v128h-768c-38.4 0-64-25.6-64-64v-512c0-38.4 25.6-64 64-64h614.4l-192-192 89.6-89.6 345.6 345.6-345.6 345.6z" />
<glyph unicode="&#xe92b;" glyph-name="arrows-1_redo-81" d="M640 665.6l-89.6-89.6 192-192h-358.4c-108.8 0-192 83.2-192 192s83.2 192 192 192h512v128h-512c-179.2 0-320-140.8-320-320s140.8-320 320-320h358.4l-192-192 89.6-89.6 345.6 345.6-345.6 345.6z" />
<glyph unicode="&#xe92c;" glyph-name="arrows-1_refresh-68" d="M480 64c-192 0-352 160-352 352s160 352 352 352c76.8 0 140.8-25.6 204.8-64h-172.8v-128h384v384h-128v-160c-83.2 64-179.2 96-288 96-262.4 0-480-217.6-480-480s217.6-480 480-480 480 217.6 480 480h-128c0-192-160-352-352-352z" />
<glyph unicode="&#xe92d;" glyph-name="arrows-1_refresh-69" d="M544 768c76.8 0 140.8-25.6 204.8-64h-172.8v-128h384v384h-128v-160c-83.2 64-179.2 96-288 96-249.6 0-460.8-192-480-441.6l128-12.8c12.8 185.6 166.4 326.4 352 326.4zM480 128c-76.8 0-140.8 25.6-204.8 64h172.8v128h-384v-384h128v160c83.2-64 179.2-96 288-96 249.6 0 460.8 192 480 441.6l-128 12.8c-12.8-185.6-166.4-326.4-352-326.4z" />
<glyph unicode="&#xe92e;" glyph-name="arrows-1_round-down" d="M704 512v256c0 108.8-83.2 192-192 192v0c-108.8 0-192-83.2-192-192v-256h-256l448-576 448 576h-256z" />
<glyph unicode="&#xe92f;" glyph-name="arrows-1_round-left" d="M576 256h256c108.8 0 192 83.2 192 192v0c0 108.8-83.2 192-192 192h-256v256l-576-448 576-448v256z" />
<glyph unicode="&#xe930;" glyph-name="arrows-1_round-right" d="M448 640h-256c-108.8 0-192-83.2-192-192v0c0-108.8 83.2-192 192-192h256v-256l576 448-576 448v-256z" />
<glyph unicode="&#xe931;" glyph-name="arrows-1_round-up" d="M320 384v-256c0-108.8 83.2-192 192-192v0c108.8 0 192 83.2 192 192v256h256l-448 576-448-576h256z" />
<glyph unicode="&#xe932;" glyph-name="arrows-1_share-66" d="M448 704v-448h128v448h153.6l-217.6 256-217.6-256zM960-64h-896c-38.4 0-64 25.6-64 64v576c0 38.4 25.6 64 64 64h192v-128h-128v-448h768v448h-128v128h192c38.4 0 64-25.6 64-64v-576c0-38.4-25.6-64-64-64z" />
<glyph unicode="&#xe933;" glyph-name="arrows-1_share-91" d="M960-64h-896c-38.4 0-64 25.6-64 64v768c0 38.4 25.6 64 64 64h192v-128h-128v-640h768v320h128v-384c0-38.4-25.6-64-64-64zM640 768c-204.8 0-384-160-384-448 70.4 108.8 153.6 192 384 192v-192l384 320-384 320v-192z" />
<glyph unicode="&#xe934;" glyph-name="arrows-1_share-92" d="M960-64h-896c-38.4 0-64 25.6-64 64v384h128v-320h768v640h-128v128h192c38.4 0 64-25.6 64-64v-768c0-38.4-25.6-64-64-64zM384 768c204.8 0 384-160 384-448-70.4 108.8-153.6 192-384 192v-192l-384 320 384 320v-192z" />
<glyph unicode="&#xe935;" glyph-name="arrows-1_shuffle-97" d="M768 640v-128l256 192-256 192v-128h-160l-448-512h-160v-128h224l448 512zM268.8 518.4l102.4 83.2-147.2 166.4h-224v-128h160zM768 256h-96l-108.8 121.6-102.4-83.2 147.2-166.4h160v-128l256 192-256 192z" />
<glyph unicode="&#xe936;" glyph-name="arrows-1_shuffle-98" d="M768 768h-12.8c-89.6 0-179.2-38.4-236.8-108.8l-300.8-339.2c-38.4-44.8-89.6-64-147.2-64h-70.4v-128h76.8c89.6 0 179.2 38.4 243.2 108.8l294.4 339.2c38.4 44.8 89.6 64 147.2 64h6.4v-128l256 192-256 192v-128zM217.6 576l38.4-44.8 96 83.2-38.4 44.8c-57.6 70.4-147.2 108.8-236.8 108.8h-76.8v-128h76.8c51.2 0 108.8-25.6 140.8-64zM768 256h-12.8c-57.6 0-108.8 25.6-147.2 64l-32 44.8-96-83.2 38.4-38.4c64-70.4 147.2-108.8 243.2-108.8h6.4v-128l256 192-256 192v-134.4z" />
<glyph unicode="&#xe937;" glyph-name="arrows-1_simple-down" d="M704 512v384c0 38.4-25.6 64-64 64h-256c-38.4 0-64-25.6-64-64v-384h-256l448-576 448 576h-256z" />
<glyph unicode="&#xe938;" glyph-name="arrows-1_simple-left" d="M576 256h384c38.4 0 64 25.6 64 64v256c0 38.4-25.6 64-64 64h-384v256l-576-448 576-448v256z" />
<glyph unicode="&#xe939;" glyph-name="arrows-1_simple-right" d="M448 640h-384c-38.4 0-64-25.6-64-64v-256c0-38.4 25.6-64 64-64h384v-256l576 448-576 448v-256z" />
<glyph unicode="&#xe93a;" glyph-name="arrows-1_simple-up" d="M320 384v-384c0-38.4 25.6-64 64-64h256c38.4 0 64 25.6 64 64v384h256l-448 576-448-576h256z" />
<glyph unicode="&#xe93b;" glyph-name="arrows-1_small-triangle-down" d="M192 640l320-384 320 384z" />
<glyph unicode="&#xe93c;" glyph-name="arrows-1_small-triangle-left" d="M704 768l-384-320 384-320z" />
<glyph unicode="&#xe93d;" glyph-name="arrows-1_small-triangle-right" d="M320 128l384 320-384 320z" />
<glyph unicode="&#xe93e;" glyph-name="arrows-1_small-triangle-up" d="M832 256l-320 384-320-384z" />
<glyph unicode="&#xe93f;" glyph-name="arrows-1_square-down" d="M960 960h-896c-38.4 0-64-25.6-64-64v-896c0-38.4 25.6-64 64-64h896c38.4 0 64 25.6 64 64v896c0 38.4-25.6 64-64 64zM512 320l-192 256h384l-192-256z" />
<glyph unicode="&#xe940;" glyph-name="arrows-1_square-left" d="M960 960h-896c-38.4 0-64-25.6-64-64v-896c0-38.4 25.6-64 64-64h896c38.4 0 64 25.6 64 64v896c0 38.4-25.6 64-64 64zM640 256l-256 192 256 192v-384z" />
<glyph unicode="&#xe941;" glyph-name="arrows-1_square-right" d="M960 960h-896c-38.4 0-64-25.6-64-64v-896c0-38.4 25.6-64 64-64h896c38.4 0 64 25.6 64 64v896c0 38.4-25.6 64-64 64zM384 256v384l256-192-256-192z" />
<glyph unicode="&#xe942;" glyph-name="arrows-1_square-up" d="M960 960h-896c-38.4 0-64-25.6-64-64v-896c0-38.4 25.6-64 64-64h896c38.4 0 64 25.6 64 64v896c0 38.4-25.6 64-64 64zM320 320l192 256 192-256h-384z" />
<glyph unicode="&#xe943;" glyph-name="arrows-1_strong-down" d="M512-64l448 512h-256v256h-384v-256h-256zM320 960h384v-128h-384v128z" />
<glyph unicode="&#xe944;" glyph-name="arrows-1_strong-left" d="M0 448l512-448v256h256v384h-256v256zM896 640h128v-384h-128v384z" />
<glyph unicode="&#xe945;" glyph-name="arrows-1_strong-right" d="M1024 448l-512 448v-256h-256v-384h256v-256zM0 640h128v-384h-128v384z" />
<glyph unicode="&#xe946;" glyph-name="arrows-1_strong-up" d="M512 960l-448-512h256v-256h384v256h256zM320 64h384v-128h-384v128z" />
<glyph unicode="&#xe947;" glyph-name="arrows-1_tail-down" d="M940.8 364.8l-89.6 89.6-275.2-275.2v780.8h-128v-780.8l-275.2 275.2-89.6-89.6 428.8-428.8z" />
<glyph unicode="&#xe948;" glyph-name="arrows-1_tail-left" d="M428.8 19.2l89.6 89.6-275.2 275.2h780.8v128h-780.8l275.2 275.2-89.6 89.6-428.8-428.8z" />
<glyph unicode="&#xe949;" glyph-name="arrows-1_tail-right" d="M595.2 876.8l-89.6-89.6 275.2-275.2h-780.8v-128h780.8l-275.2-275.2 89.6-89.6 428.8 428.8z" />
<glyph unicode="&#xe94a;" glyph-name="arrows-1_tail-triangle-down" d="M576 384v512c0 38.4-25.6 64-64 64v0c-38.4 0-64-25.6-64-64v-512h-320l384-448 384 448h-320z" />
<glyph unicode="&#xe94b;" glyph-name="arrows-1_tail-triangle-left" d="M448 384h512c38.4 0 64 25.6 64 64v0c0 38.4-25.6 64-64 64h-512v320l-448-384 448-384v320z" />
<glyph unicode="&#xe94c;" glyph-name="arrows-1_tail-triangle-right" d="M576 512h-512c-38.4 0-64-25.6-64-64v0c0-38.4 25.6-64 64-64h512v-320l448 384-448 384v-320z" />
<glyph unicode="&#xe94d;" glyph-name="arrows-1_tail-triangle-up" d="M448 512v-512c0-38.4 25.6-64 64-64v0c38.4 0 64 25.6 64 64v512h320l-384 448-384-448h320z" />
<glyph unicode="&#xe94e;" glyph-name="arrows-1_tail-up" d="M83.2 531.2l89.6-89.6 275.2 275.2v-780.8h128v780.8l275.2-275.2 89.6 89.6-428.8 428.8z" />
<glyph unicode="&#xe94f;" glyph-name="arrows-1_trend-down" d="M576 320h230.4l-230.4 230.4-256-256-300.8 300.8 89.6 89.6 211.2-211.2 256 256 320-320v230.4h128v-448h-448z" />
<glyph unicode="&#xe950;" glyph-name="arrows-1_trend-up" d="M576 576h230.4l-230.4-230.4-256 256-300.8-300.8 89.6-89.6 211.2 211.2 256-256 320 320v-230.4h128v448h-448z" />
<glyph unicode="&#xe951;" glyph-name="arrows-1_triangle-down-20" d="M512 64c19.2 0 38.4 12.8 51.2 25.6l448 640c12.8 19.2 12.8 44.8 6.4 64-12.8 25.6-32 38.4-57.6 38.4h-896c-25.6 0-44.8-12.8-57.6-32s-6.4-44.8 6.4-64l448-640c12.8-19.2 32-32 51.2-32 0 0 0 0 0 0s0 0 0 0z" />
<glyph unicode="&#xe952;" glyph-name="arrows-1_triangle-down-65" d="M512-64c19.2 0 38.4 12.8 51.2 25.6l448 640c12.8 19.2 12.8 44.8 6.4 64-12.8 25.6-32 38.4-57.6 38.4h-896c-25.6 0-44.8-12.8-57.6-32s-6.4-44.8 6.4-64l448-640c12.8-19.2 32-32 51.2-32 0 0 0 0 0 0s0 0 0 0zM0 896c0 38.4 25.6 64 64 64h896c38.4 0 64-25.6 64-64s-25.6-64-64-64h-896c-38.4 0-64 25.6-64 64z" />
<glyph unicode="&#xe953;" glyph-name="arrows-1_triangle-left-18" d="M128 448c0-19.2 12.8-38.4 25.6-51.2l640-448c19.2-12.8 44.8-12.8 64-6.4 19.2 12.8 32 32 32 57.6v896c0 25.6-12.8 44.8-32 57.6s-44.8 6.4-64-6.4l-640-448c-12.8-12.8-25.6-32-25.6-51.2 0 0 0 0 0 0s0 0 0 0z" />
<glyph unicode="&#xe954;" glyph-name="arrows-1_triangle-left-63" d="M0 448c0-19.2 12.8-38.4 25.6-51.2l640-448c19.2-12.8 44.8-12.8 64-6.4 19.2 12.8 32 32 32 57.6v896c0 25.6-12.8 44.8-32 57.6s-44.8 6.4-64-6.4l-640-448c-12.8-12.8-25.6-32-25.6-51.2 0 0 0 0 0 0s0 0 0 0zM960 960c38.4 0 64-25.6 64-64v-896c0-38.4-25.6-64-64-64s-64 25.6-64 64v896c0 38.4 25.6 64 64 64z" />
<glyph unicode="&#xe955;" glyph-name="arrows-1_triangle-right-17" d="M896 448c0 19.2-12.8 38.4-25.6 51.2l-640 448c-19.2 12.8-44.8 19.2-70.4 6.4-19.2-12.8-32-32-32-57.6v-896c0-25.6 12.8-44.8 32-57.6s44.8-6.4 64 6.4l640 448c19.2 12.8 32 32 32 51.2 0 0 0 0 0 0s0 0 0 0z" />
<glyph unicode="&#xe956;" glyph-name="arrows-1_triangle-right-62" d="M1024 448c0 19.2-12.8 38.4-25.6 51.2l-640 448c-19.2 12.8-44.8 19.2-70.4 6.4-19.2-12.8-32-32-32-57.6v-896c0-25.6 12.8-44.8 32-57.6s44.8-6.4 64 6.4l640 448c19.2 12.8 32 32 32 51.2 0 0 0 0 0 0s0 0 0 0zM64-64c-38.4 0-64 25.6-64 64v896c0 38.4 25.6 64 64 64s64-25.6 64-64v-896c0-38.4-25.6-64-64-64z" />
<glyph unicode="&#xe957;" glyph-name="arrows-1_triangle-up-19" d="M512 832c-19.2 0-38.4-12.8-51.2-25.6l-448-640c-12.8-19.2-12.8-44.8-6.4-64 12.8-25.6 32-38.4 57.6-38.4h896c25.6 0 44.8 12.8 57.6 32s6.4 44.8-6.4 64l-448 640c-12.8 19.2-32 32-51.2 32 0 0 0 0 0 0s0 0 0 0z" />
<glyph unicode="&#xe958;" glyph-name="arrows-1_triangle-up-64" d="M512 960c-19.2 0-38.4-12.8-51.2-25.6l-448-640c-12.8-19.2-12.8-44.8-6.4-64 12.8-25.6 32-38.4 57.6-38.4h896c25.6 0 44.8 12.8 57.6 32s6.4 44.8-6.4 64l-448 640c-12.8 19.2-32 32-51.2 32 0 0 0 0 0 0s0 0 0 0zM1024 0c0-38.4-25.6-64-64-64h-896c-38.4 0-64 25.6-64 64s25.6 64 64 64h896c38.4 0 64-25.6 64-64z" />
<glyph unicode="&#xe959;" glyph-name="arrows-1_zoom-88" d="M320 640h384v-384h-384v384zM128 576h-128v320c0 38.4 25.6 64 64 64h320v-128h-256v-256zM1024 576h-128v256h-256v128h320c38.4 0 64-25.6 64-64v-320zM960-64h-320v128h256v256h128v-320c0-38.4-25.6-64-64-64zM384-64h-320c-38.4 0-64 25.6-64 64v320h128v-256h256v-128z" />
<glyph unicode="&#xe95a;" glyph-name="arrows-2_block-down" d="M0 960h1024v-256h-1024v256zM576 153.6v422.4h-128v-422.4l-192 192-89.6-89.6 300.8-300.8c12.8-12.8 25.6-19.2 44.8-19.2s32 6.4 44.8 19.2l300.8 300.8-89.6 89.6-192-192z" />
<glyph unicode="&#xe95b;" glyph-name="arrows-2_block-left" d="M768 960h256v-1024h-256v1024zM409.6 704l-89.6 89.6-300.8-300.8c-25.6-25.6-25.6-64 0-89.6l300.8-300.8 89.6 89.6-192 192h422.4v128h-422.4l192 192z" />
<glyph unicode="&#xe95c;" glyph-name="arrows-2_block-right" d="M0 960h256v-1024h-256v1024zM704 793.6l-89.6-89.6 192-192h-422.4v-128h422.4l-192-192 89.6-89.6 300.8 300.8c25.6 25.6 25.6 64 0 89.6l-300.8 300.8z" />
<glyph unicode="&#xe95d;" glyph-name="arrows-2_block-up" d="M0 192h1024v-256h-1024v256zM448 742.4v-422.4h128v422.4l192-192 89.6 89.6-300.8 300.8c-25.6 25.6-64 25.6-89.6 0l-300.8-300.8 89.6-89.6 192 192z" />
<glyph unicode="&#xe95e;" glyph-name="arrows-2_conversion" d="M960 512h-896c-38.4 0-64 25.6-64 64s25.6 64 64 64h742.4l-211.2 211.2c-25.6 25.6-25.6 64 0 89.6s64 25.6 89.6 0l320-320c19.2-19.2 25.6-44.8 12.8-70.4s-32-38.4-57.6-38.4zM384-64c-19.2 0-32 6.4-44.8 19.2l-320 320c-19.2 19.2-25.6 44.8-12.8 70.4s32 38.4 57.6 38.4h896c38.4 0 64-25.6 64-64s-25.6-64-64-64h-742.4l211.2-211.2c25.6-25.6 25.6-64 0-89.6-12.8-12.8-25.6-19.2-44.8-19.2z" />
<glyph unicode="&#xe95f;" glyph-name="arrows-2_corner-down-round" d="M384 576v-358.4l-256 256-89.6-89.6 364.8-364.8c12.8-12.8 25.6-19.2 44.8-19.2s32 6.4 44.8 19.2l364.8 364.8-89.6 89.6-256-256v358.4c0 140.8 115.2 256 256 256h192v128h-192c-211.2 0-384-172.8-384-384z" />
<glyph unicode="&#xe960;" glyph-name="arrows-2_corner-down" d="M960 832v128h-512c-38.4 0-64-25.6-64-64v-678.4l-256 256-89.6-89.6 364.8-364.8c12.8-12.8 25.6-19.2 44.8-19.2s32 6.4 44.8 19.2l364.8 364.8-89.6 89.6-256-256v614.4h448z" />
<glyph unicode="&#xe961;" glyph-name="arrows-2_corner-left-down" d="M768 153.6v486.4c0 38.4-25.6 64-64 64h-486.4l128 128-89.6 89.6-236.8-236.8c-25.6-25.6-25.6-64 0-89.6l236.8-236.8 89.6 89.6-128 128h422.4v-422.4l-128 128-89.6-89.6 236.8-236.8c12.8-12.8 32-19.2 44.8-19.2s32 6.4 44.8 19.2l236.8 236.8-89.6 89.6-128-128z" />
<glyph unicode="&#xe962;" glyph-name="arrows-2_corner-left-round" d="M576 576h-358.4l256 256-89.6 89.6-364.8-364.8c-25.6-25.6-25.6-64 0-89.6l364.8-364.8 89.6 89.6-256 256h358.4c140.8 0 256-115.2 256-256v-192h128v192c0 211.2-172.8 384-384 384z" />
<glyph unicode="&#xe963;" glyph-name="arrows-2_corner-left" d="M896 576h-678.4l256 256-89.6 89.6-364.8-364.8c-25.6-25.6-25.6-64 0-89.6l364.8-364.8 89.6 89.6-256 256h614.4v-448h128v512c0 38.4-25.6 64-64 64z" />
<glyph unicode="&#xe964;" glyph-name="arrows-2_corner-right-down" d="M768 921.6l-89.6-89.6 128-128h-486.4c-38.4 0-64-25.6-64-64v-486.4l-128 128-89.6-89.6 236.8-236.8c12.8-12.8 25.6-19.2 44.8-19.2s32 6.4 44.8 19.2l236.8 236.8-89.6 89.6-128-128v422.4h422.4l-128-128 89.6-89.6 236.8 236.8c25.6 25.6 25.6 64 0 89.6l-236.8 236.8z" />
<glyph unicode="&#xe965;" glyph-name="arrows-2_corner-right-round" d="M640 921.6l-89.6-89.6 256-256h-358.4c-211.2 0-384-172.8-384-384v-192h128v192c0 140.8 115.2 256 256 256h358.4l-256-256 89.6-89.6 364.8 364.8c25.6 25.6 25.6 64 0 89.6l-364.8 364.8z" />
<glyph unicode="&#xe966;" glyph-name="arrows-2_corner-right" d="M640 921.6l-89.6-89.6 256-256h-678.4c-38.4 0-64-25.6-64-64v-512h128v448h614.4l-256-256 89.6-89.6 364.8 364.8c25.6 25.6 25.6 64 0 89.6l-364.8 364.8z" />
<glyph unicode="&#xe967;" glyph-name="arrows-2_corner-up-left" d="M659.2 940.8l-236.8-236.8 89.6-89.6 128 128v-422.4h-422.4l128 128-89.6 89.6-236.8-236.8c-25.6-25.6-25.6-64 0-89.6l236.8-236.8 89.6 89.6-128 128h486.4c38.4 0 64 25.6 64 64v486.4l128-128 89.6 89.6-236.8 236.8c-25.6 25.6-64 25.6-89.6 0z" />
<glyph unicode="&#xe968;" glyph-name="arrows-2_corner-up-right" d="M1004.8 300.8l-236.8 236.8-89.6-89.6 128-128h-422.4v422.4l128-128 89.6 89.6-236.8 236.8c-25.6 25.6-64 25.6-89.6 0l-236.8-236.8 89.6-89.6 128 128v-486.4c0-38.4 25.6-64 64-64h486.4l-128-128 89.6-89.6 236.8 236.8c25.6 25.6 25.6 64 0 89.6z" />
<glyph unicode="&#xe969;" glyph-name="arrows-2_corner-up-round" d="M531.2 940.8l-364.8-364.8 89.6-89.6 256 256v-358.4c0-140.8-115.2-256-256-256h-192v-128h192c211.2 0 384 172.8 384 384v358.4l256-256 89.6 89.6-364.8 364.8c-25.6 25.6-64 25.6-89.6 0z" />
<glyph unicode="&#xe96a;" glyph-name="arrows-2_corner-up" d="M531.2 940.8l-364.8-364.8 89.6-89.6 256 256v-614.4h-448v-128h512c38.4 0 64 25.6 64 64v678.4l256-256 89.6 89.6-364.8 364.8c-25.6 25.6-64 25.6-89.6 0z" />
<glyph unicode="&#xe96b;" glyph-name="arrows-2_cross-down" d="M576 153.6v806.4h-128v-806.4l-128 128-89.6-89.6 236.8-236.8c12.8-12.8 25.6-19.2 44.8-19.2s32 6.4 44.8 19.2l236.8 236.8-89.6 89.6-128-128zM704 576h320v-128h-320v128zM0 576h448v-128h-448v128z" />
<glyph unicode="&#xe96c;" glyph-name="arrows-2_cross-left" d="M217.6 512l128 128-89.6 89.6-236.8-236.8c-25.6-25.6-25.6-64 0-89.6l236.8-236.8 89.6 89.6-128 128h806.4v128h-806.4zM512 256h128v-320h-128v320zM512 960h128v-448h-128v448z" />
<glyph unicode="&#xe96d;" glyph-name="arrows-2_cross-right" d="M1004.8 492.8l-236.8 236.8-89.6-89.6 128-128h-806.4v-128h806.4l-128-128 89.6-89.6 236.8 236.8c25.6 25.6 25.6 64 0 89.6zM384 256h128v-320h-128v320zM384 960h128v-448h-128v448z" />
<glyph unicode="&#xe96e;" glyph-name="arrows-2_cross-up" d="M704 614.4l89.6 89.6-236.8 236.8c-25.6 25.6-64 25.6-89.6 0l-236.8-236.8 89.6-89.6 128 128v-806.4h128v806.4l128-128zM704 448h320v-128h-320v128zM0 448h448v-128h-448v128z" />
<glyph unicode="&#xe96f;" glyph-name="arrows-2_delete-49" d="M960 832h-640c-19.2 0-38.4-6.4-51.2-25.6l-256-320c-19.2-25.6-19.2-57.6 0-76.8l256-320c12.8-19.2 32-25.6 51.2-25.6h640c38.4 0 64 25.6 64 64v640c0 38.4-25.6 64-64 64zM896 192h-544l-204.8 256 204.8 256h544v-512z" />
<glyph unicode="&#xe970;" glyph-name="arrows-2_delete-50" d="M960 832h-640c-19.2 0-38.4-6.4-51.2-25.6l-256-320c-19.2-25.6-19.2-57.6 0-76.8l256-320c12.8-19.2 32-25.6 51.2-25.6h640c38.4 0 64 25.6 64 64v640c0 38.4-25.6 64-64 64z" />
<glyph unicode="&#xe971;" glyph-name="arrows-2_direction" d="M576 512h128v384c0 38.4-25.6 64-64 64h-384v-128h230.4l-467.2-467.2 89.6-89.6 467.2 467.2v-230.4zM1004.8 531.2l-89.6 89.6-467.2-467.2v230.4h-128v-384c0-38.4 25.6-64 64-64h384v128h-230.4l467.2 467.2z" />
<glyph unicode="&#xe972;" glyph-name="arrows-2_dots-download" d="M384 64h256v-128h-256v128zM384 960h256v-128h-256v128zM896 576h128v-256h-128v256zM0 576h128v-256h-128v256zM768 448h-192v256h-128v-256h-192l256-256zM128 832h128v128h-192c-38.4 0-64-25.6-64-64v-192h128v128zM960 960h-192v-128h128v-128h128v192c0 38.4-25.6 64-64 64zM896 64h-128v-128h192c38.4 0 64 25.6 64 64v192h-128v-128zM128 192h-128v-192c0-38.4 25.6-64 64-64h192v128h-128v128z" />
<glyph unicode="&#xe973;" glyph-name="arrows-2_dots-upload" d="M384 64h256v-128h-256v128zM384 960h256v-128h-256v128zM896 576h128v-256h-128v256zM0 576h128v-256h-128v256zM448 192h128v256h192l-256 256-256-256h192zM128 832h128v128h-192c-38.4 0-64-25.6-64-64v-192h128v128zM960 960h-192v-128h128v-128h128v192c0 38.4-25.6 64-64 64zM896 64h-128v-128h192c38.4 0 64 25.6 64 64v192h-128v-128zM128 192h-128v-192c0-38.4 25.6-64 64-64h192v128h-128v128z" />
<glyph unicode="&#xe974;" glyph-name="arrows-2_eject" d="M960 192h-192v128h128v512h-768v-512h128v-128h-192c-38.4 0-64 25.6-64 64v640c0 38.4 25.6 64 64 64h896c38.4 0 64-25.6 64-64v-640c0-38.4-25.6-64-64-64zM192-64h640l-320 384z" />
<glyph unicode="&#xe975;" glyph-name="arrows-2_enlarge-circle" d="M704 448c0-106.039-85.961-192-192-192s-192 85.961-192 192c0 106.039 85.961 192 192 192s192-85.961 192-192zM128 576h-128v320c0 38.4 25.6 64 64 64h320v-128h-256v-256zM1024 576h-128v256h-256v128h320c38.4 0 64-25.6 64-64v-320zM960-64h-320v128h256v256h128v-320c0-38.4-25.6-64-64-64zM384-64h-320c-38.4 0-64 25.6-64 64v320h128v-256h256v-128z" />
<glyph unicode="&#xe976;" glyph-name="arrows-2_file-download-87" d="M512 448l256 256h-192v256h-128v-256h-192zM960 960h-192v-128h128v-512h-768v512h128v128h-192c-38.4 0-64-25.6-64-64v-896c0-38.4 25.6-64 64-64h896c38.4 0 64 25.6 64 64v896c0 38.4-25.6 64-64 64z" />
<glyph unicode="&#xe977;" glyph-name="arrows-2_file-upload-86" d="M448 704v-256h128v256h192l-256 256-256-256zM960 960h-192v-128h128v-512h-768v512h128v128h-192c-38.4 0-64-25.6-64-64v-896c0-38.4 25.6-64 64-64h896c38.4 0 64 25.6 64 64v896c0 38.4-25.6 64-64 64z" />
<glyph unicode="&#xe978;" glyph-name="arrows-2_hit-down" d="M512 192c19.2 0 32 6.4 44.8 19.2l364.8 364.8-89.6 89.6-256-256v550.4h-128v-550.4l-256 256-89.6-89.6 364.8-364.8c12.8-12.8 25.6-19.2 44.8-19.2zM64 64h896v-128h-896v128z" />
<glyph unicode="&#xe979;" glyph-name="arrows-2_hit-left" d="M729.6 768l-89.6 89.6-364.8-364.8c-25.6-25.6-25.6-64 0-89.6l364.8-364.8 89.6 89.6-256 256h550.4v128h-550.4l256 256zM0 896h128v-896h-128v896z" />
<glyph unicode="&#xe97a;" glyph-name="arrows-2_hit-right" d="M384 857.6l-89.6-89.6 256-256h-550.4v-128h550.4l-256-256 89.6-89.6 364.8 364.8c25.6 25.6 25.6 64 0 89.6l-364.8 364.8zM896 896h128v-896h-128v896z" />
<glyph unicode="&#xe97b;" glyph-name="arrows-2_hit-up" d="M467.2 684.8l-364.8-364.8 89.6-89.6 256 256v-550.4h128v550.4l256-256 89.6 89.6-364.8 364.8c-25.6 25.6-64 25.6-89.6 0zM64 960h896v-128h-896v128z" />
<glyph unicode="&#xe97c;" glyph-name="arrows-2_log-out" d="M217.6 832h294.4v-128h128v192c0 38.4-25.6 64-64 64h-512c-38.4 0-64-25.6-64-64v-576c0-19.2 6.4-32 19.2-44.8l320-320c12.8-12.8 25.6-19.2 44.8-19.2 6.4 0 19.2 0 25.6 6.4 25.6 6.4 38.4 32 38.4 57.6v576c0 19.2-6.4 32-19.2 44.8l-211.2 211.2zM320 153.6l-192 192v396.8l192-192v-396.8zM1004.8 492.8l-236.8 236.8-89.6-89.6 128-128h-294.4v-128h294.4l-128-128 89.6-89.6 236.8 236.8c25.6 25.6 25.6 64 0 89.6z" />
<glyph unicode="&#xe97d;" glyph-name="arrows-2_move-down-right" d="M896 153.6l-275.2 275.2-89.6-89.6 275.2-275.2h-294.4v-128h448c38.4 0 64 25.6 64 64v448h-128v-294.4zM0 960h448v-448h-448v448z" />
<glyph unicode="&#xe97e;" glyph-name="arrows-2_move-down" d="M576 153.6v550.4h-128v-550.4l-256 256-89.6-89.6 364.8-364.8c12.8-12.8 25.6-19.2 44.8-19.2s32 6.4 44.8 19.2l364.8 364.8-89.6 89.6-256-256zM64 960h896v-128h-896v128z" />
<glyph unicode="&#xe97f;" glyph-name="arrows-2_move-left" d="M473.6 768l-89.6 89.6-364.8-364.8c-25.6-25.6-25.6-64 0-89.6l364.8-364.8 89.6 89.6-256 256h550.4v128h-550.4l256 256zM896 896h128v-896h-128v896z" />
<glyph unicode="&#xe980;" glyph-name="arrows-2_move-right" d="M640 857.6l-89.6-89.6 256-256h-550.4v-128h550.4l-256-256 89.6-89.6 364.8 364.8c25.6 25.6 25.6 64 0 89.6l-364.8 364.8zM0 896h128v-896h-128v896z" />
<glyph unicode="&#xe981;" glyph-name="arrows-2_move-up-left" d="M0 896v-448h128v294.4l275.2-275.2 89.6 89.6-275.2 275.2h294.4v128h-448c-38.4 0-64-25.6-64-64zM576 384h448v-448h-448v448z" />
<glyph unicode="&#xe982;" glyph-name="arrows-2_move-up" d="M448 742.4v-550.4h128v550.4l256-256 89.6 89.6-364.8 364.8c-25.6 25.6-64 25.6-89.6 0l-364.8-364.8 89.6-89.6 256 256zM64 64h896v-128h-896v128z" />
<glyph unicode="&#xe983;" glyph-name="arrows-2_push-next" d="M556.8 940.8c-19.2 19.2-44.8 25.6-70.4 12.8-25.6-6.4-38.4-32-38.4-57.6v-294.4l-339.2 339.2c-19.2 19.2-44.8 25.6-70.4 12.8-25.6-6.4-38.4-32-38.4-57.6v-896c0-25.6 12.8-51.2 38.4-57.6 6.4-6.4 19.2-6.4 25.6-6.4 19.2 0 32 6.4 44.8 19.2l339.2 339.2v-294.4c0-25.6 12.8-51.2 38.4-57.6 6.4-6.4 19.2-6.4 25.6-6.4 19.2 0 32 6.4 44.8 19.2l448 448c25.6 25.6 25.6 64 0 89.6l-448 448zM128 153.6v588.8l294.4-294.4-294.4-294.4zM576 153.6v588.8l294.4-294.4-294.4-294.4z" />
<glyph unicode="&#xe984;" glyph-name="arrows-2_push-previous" d="M985.6 953.6c-25.6 12.8-51.2 6.4-70.4-12.8l-339.2-339.2v294.4c0 25.6-12.8 51.2-38.4 57.6-25.6 12.8-51.2 6.4-70.4-12.8l-448-448c-25.6-25.6-25.6-64 0-89.6l448-448c12.8-12.8 25.6-19.2 44.8-19.2 6.4 0 19.2 0 25.6 6.4 25.6 6.4 38.4 32 38.4 57.6v294.4l339.2-339.2c12.8-12.8 25.6-19.2 44.8-19.2 6.4 0 19.2 0 25.6 6.4 25.6 12.8 38.4 32 38.4 57.6v896c0 25.6-12.8 51.2-38.4 57.6zM448 153.6l-294.4 294.4 294.4 294.4v-588.8zM896 153.6l-294.4 294.4 294.4 294.4v-588.8z" />
<glyph unicode="&#xe985;" glyph-name="arrows-2_replay" d="M960 768h-128v-128h64v-384h-384v128l-256-192 256-192v128h448c38.4 0 64 25.6 64 64v512c0 38.4-25.6 64-64 64zM128 640h384v-128l256 192-256 192v-128h-448c-38.4 0-64-25.6-64-64v-512c0-38.4 25.6-64 64-64h128v128h-64v384z" />
<glyph unicode="&#xe986;" glyph-name="arrows-2_round-left-down" d="M768 153.6v230.4c0 179.2-140.8 320-320 320h-230.4l128 128-89.6 89.6-236.8-236.8c-25.6-25.6-25.6-64 0-89.6l236.8-236.8 89.6 89.6-128 128h230.4c108.8 0 192-83.2 192-192v-230.4l-128 128-89.6-89.6 236.8-236.8c12.8-12.8 32-19.2 44.8-19.2s32 6.4 44.8 19.2l236.8 236.8-89.6 89.6-128-128z" />
<glyph unicode="&#xe987;" glyph-name="arrows-2_round-right-down" d="M768 921.6l-89.6-89.6 128-128h-230.4c-179.2 0-320-140.8-320-320v-230.4l-128 128-89.6-89.6 236.8-236.8c12.8-12.8 25.6-19.2 44.8-19.2s32 6.4 44.8 19.2l236.8 236.8-89.6 89.6-128-128v230.4c0 108.8 83.2 192 192 192h230.4l-128-128 89.6-89.6 236.8 236.8c25.6 25.6 25.6 64 0 89.6l-236.8 236.8z" />
<glyph unicode="&#xe988;" glyph-name="arrows-2_round-up-left" d="M659.2 940.8l-236.8-236.8 89.6-89.6 128 128v-230.4c0-108.8-83.2-192-192-192h-230.4l128 128-89.6 89.6-236.8-236.8c-25.6-25.6-25.6-64 0-89.6l236.8-236.8 89.6 89.6-128 128h230.4c179.2 0 320 140.8 320 320v230.4l128-128 89.6 89.6-236.8 236.8c-25.6 25.6-64 25.6-89.6 0z" />
<glyph unicode="&#xe989;" glyph-name="arrows-2_round-up-right" d="M768 537.6l-89.6-89.6 128-128h-230.4c-108.8 0-192 83.2-192 192v230.4l128-128 89.6 89.6-236.8 236.8c-25.6 25.6-64 25.6-89.6 0l-236.8-236.8 89.6-89.6 128 128v-230.4c0-179.2 140.8-320 320-320h230.4l-128-128 89.6-89.6 236.8 236.8c25.6 25.6 25.6 64 0 89.6l-236.8 236.8z" />
<glyph unicode="&#xe98a;" glyph-name="arrows-2_select-83" d="M128 576h768l-384 384zM512-64l384 384h-768z" />
<glyph unicode="&#xe98b;" glyph-name="arrows-2_select-84" d="M473.6 883.2l-320-256 76.8-102.4 281.6 224 281.6-224 76.8 102.4-320 256c-19.2 19.2-57.6 19.2-76.8 0zM512 147.2l-281.6 224-76.8-102.4 320-256c12.8-6.4 25.6-12.8 38.4-12.8s25.6 6.4 38.4 12.8l320 256-76.8 102.4-281.6-224z" />
<glyph unicode="&#xe98c;" glyph-name="arrows-2_skew-down" d="M1024 454.4v422.4l-512-435.2-512 435.2v-422.4l512-435.2z" />
<glyph unicode="&#xe98d;" glyph-name="arrows-2_skew-left" d="M518.4-64h422.4l-435.2 512 435.2 512h-422.4l-435.2-512z" />
<glyph unicode="&#xe98e;" glyph-name="arrows-2_skew-right" d="M505.6 960h-422.4l435.2-512-435.2-512h422.4l435.2 512z" />
<glyph unicode="&#xe98f;" glyph-name="arrows-2_skew-up" d="M0 441.6v-422.4l512 435.2 512-435.2v422.4l-512 435.2z" />
<glyph unicode="&#xe990;" glyph-name="arrows-2_small-left" d="M640 102.4l-345.6 345.6 345.6 345.6 89.6-89.6-256-256 256-256z" />
<glyph unicode="&#xe991;" glyph-name="arrows-2_small-right" d="M384 102.4l-89.6 89.6 256 256-256 256 89.6 89.6 345.6-345.6z" />
<glyph unicode="&#xe992;" glyph-name="arrows-2_square-download" d="M512 192c19.2 0 32 6.4 44.8 19.2l364.8 364.8-89.6 89.6-256-256v550.4h-128v-550.4l-256 256-89.6-89.6 364.8-364.8c12.8-12.8 25.6-19.2 44.8-19.2zM896 64h-768v192h-128v-256c0-38.4 25.6-64 64-64h896c38.4 0 64 25.6 64 64v256h-128v-192z" />
<glyph unicode="&#xe993;" glyph-name="arrows-2_square-upload" d="M448 742.4v-550.4h128v550.4l256-256 89.6 89.6-364.8 364.8c-25.6 25.6-64 25.6-89.6 0l-364.8-364.8 89.6-89.6 256 256zM896 64h-768v192h-128v-256c0-38.4 25.6-64 64-64h896c38.4 0 64 25.6 64 64v256h-128v-192z" />
<glyph unicode="&#xe994;" glyph-name="arrows-2_triangle-down" d="M512 192c19.2 0 38.4 12.8 51.2 25.6l448 640c12.8 19.2 12.8 44.8 6.4 64-12.8 25.6-32 38.4-57.6 38.4h-896c-25.6 0-44.8-12.8-57.6-32s-6.4-44.8 6.4-64l448-640c12.8-19.2 32-32 51.2-32 0 0 0 0 0 0s0 0 0 0zM0 0c0 38.4 25.6 64 64 64h896c38.4 0 64-25.6 64-64s-25.6-64-64-64h-896c-38.4 0-64 25.6-64 64z" />
<glyph unicode="&#xe995;" glyph-name="arrows-2_triangle-left" d="M256 448c0-19.2 12.8-38.4 25.6-51.2l640-448c19.2-12.8 44.8-12.8 64-6.4 19.2 12.8 32 32 32 57.6v896c0 25.6-12.8 44.8-32 57.6s-44.8 6.4-64-6.4l-640-448c-12.8-12.8-25.6-32-25.6-51.2 0 0 0 0 0 0s0 0 0 0zM64 960c38.4 0 64-25.6 64-64v-896c0-38.4-25.6-64-64-64s-64 25.6-64 64v896c0 38.4 25.6 64 64 64z" />
<glyph unicode="&#xe996;" glyph-name="arrows-2_triangle-right" d="M768 448c0 19.2-12.8 38.4-25.6 51.2l-640 448c-19.2 12.8-44.8 19.2-70.4 6.4-19.2-12.8-32-32-32-57.6v-896c0-25.6 12.8-44.8 32-57.6s44.8-6.4 64 6.4l640 448c19.2 12.8 32 32 32 51.2 0 0 0 0 0 0s0 0 0 0zM960-64c-38.4 0-64 25.6-64 64v896c0 38.4 25.6 64 64 64s64-25.6 64-64v-896c0-38.4-25.6-64-64-64z" />
<glyph unicode="&#xe997;" glyph-name="arrows-2_triangle-up" d="M512 704c-19.2 0-38.4-12.8-51.2-25.6l-448-640c-12.8-19.2-12.8-44.8-6.4-64 12.8-25.6 32-38.4 57.6-38.4h896c25.6 0 44.8 12.8 57.6 32s6.4 44.8-6.4 64l-448 640c-12.8 19.2-32 32-51.2 32 0 0 0 0 0 0s0 0 0 0zM1024 896c0-38.4-25.6-64-64-64h-896c-38.4 0-64 25.6-64 64s25.6 64 64 64h896c38.4 0 64-25.6 64-64z" />
<glyph unicode="&#xe998;" glyph-name="arrows-2_zoom" d="M358.4 832l537.6-537.6v537.6zM128 64h537.6l-537.6 537.6z" />
<glyph unicode="&#xe999;" glyph-name="arrows-3_circle-simple-down" d="M1024 448c0 281.6-230.4 512-512 512s-512-230.4-512-512c0-281.6 230.4-512 512-512s512 230.4 512 512zM256 448h192v256h128v-256h192l-256-256-256 256z" />
<glyph unicode="&#xe99a;" glyph-name="arrows-3_circle-simple-left" d="M512-64c281.6 0 512 230.4 512 512s-230.4 512-512 512-512-230.4-512-512 230.4-512 512-512zM512 704v-192h256v-128h-256v-192l-256 256 256 256z" />
<glyph unicode="&#xe99b;" glyph-name="arrows-3_circle-simple-right" d="M512 960c-281.6 0-512-230.4-512-512s230.4-512 512-512 512 230.4 512 512-230.4 512-512 512zM512 192v192h-256v128h256v192l256-256-256-256z" />
<glyph unicode="&#xe99c;" glyph-name="arrows-3_circle-simple-up" d="M0 448c0-281.6 230.4-512 512-512s512 230.4 512 512-230.4 512-512 512-512-230.4-512-512zM768 448h-192v-256h-128v256h-192l256 256 256-256z" />
<glyph unicode="&#xe99d;" glyph-name="arrows-3_small-down" d="M512 230.4l-345.6 345.6 89.6 89.6 256-256 256 256 89.6-89.6z" />
<glyph unicode="&#xe99e;" glyph-name="arrows-3_small-up" d="M768 230.4l-256 256-256-256-89.6 89.6 345.6 345.6 345.6-345.6z" />
<glyph unicode="&#xe99f;" glyph-name="arrows-3_square-corner-down-left" d="M0 896v-896c0-38.4 25.6-64 64-64h896c38.4 0 64 25.6 64 64v896c0 38.4-25.6 64-64 64h-896c-38.4 0-64-25.6-64-64zM512 128h-320v320l115.2-115.2 288 288 89.6-89.6-288-288 115.2-115.2z" />
<glyph unicode="&#xe9a0;" glyph-name="arrows-3_square-corner-down-right" d="M0 896v-896c0-38.4 25.6-64 64-64h896c38.4 0 64 25.6 64 64v896c0 38.4-25.6 64-64 64h-896c-38.4 0-64-25.6-64-64zM832 128h-320l115.2 115.2-288 288 89.6 89.6 288-288 115.2 115.2v-320z" />
<glyph unicode="&#xe9a1;" glyph-name="arrows-3_square-corner-up-left" d="M0 896v-896c0-38.4 25.6-64 64-64h896c38.4 0 64 25.6 64 64v896c0 38.4-25.6 64-64 64h-896c-38.4 0-64-25.6-64-64zM595.2 275.2l-288 288-115.2-115.2v320h320l-115.2-115.2 288-288-89.6-89.6z" />
<glyph unicode="&#xe9a2;" glyph-name="arrows-3_square-corner-up-right" d="M0 896v-896c0-38.4 25.6-64 64-64h896c38.4 0 64 25.6 64 64v896c0 38.4-25.6 64-64 64h-896c-38.4 0-64-25.6-64-64zM832 448l-115.2 115.2-288-288-89.6 89.6 288 288-115.2 115.2h320v-320z" />
<glyph unicode="&#xe9a3;" glyph-name="arrows-3_square-down-06" d="M0 0v896c0 38.4 25.6 64 64 64h896c38.4 0 64-25.6 64-64v-896c0-38.4-25.6-64-64-64h-896c-38.4 0-64 25.6-64 64zM128 832v-768h768v768h-768zM294.4 512l89.6 89.6 128-128 128 128 89.6-89.6-217.6-217.6z" />
<glyph unicode="&#xe9a4;" glyph-name="arrows-3_square-left-04" d="M64 960h896c38.4 0 64-25.6 64-64v-896c0-38.4-25.6-64-64-64h-896c-38.4 0-64 25.6-64 64v896c0 38.4 25.6 64 64 64zM896 832h-768v-768h768v768zM576 665.6l89.6-89.6-128-128 128-128-89.6-89.6-217.6 217.6z" />
<glyph unicode="&#xe9a5;" glyph-name="arrows-3_square-right-03" d="M960-64h-896c-38.4 0-64 25.6-64 64v896c0 38.4 25.6 64 64 64h896c38.4 0 64-25.6 64-64v-896c0-38.4-25.6-64-64-64zM128 64h768v768h-768v-768zM448 230.4l-89.6 89.6 128 128-128 128 89.6 89.6 217.6-217.6z" />
<glyph unicode="&#xe9a6;" glyph-name="arrows-3_square-simple-down" d="M1024 0v896c0 38.4-25.6 64-64 64h-896c-38.4 0-64-25.6-64-64v-896c0-38.4 25.6-64 64-64h896c38.4 0 64 25.6 64 64zM256 448h192v256h128v-256h192l-256-256-256 256z" />
<glyph unicode="&#xe9a7;" glyph-name="arrows-3_square-simple-left" d="M64-64h896c38.4 0 64 25.6 64 64v896c0 38.4-25.6 64-64 64h-896c-38.4 0-64-25.6-64-64v-896c0-38.4 25.6-64 64-64zM512 704v-192h256v-128h-256v-192l-256 256 256 256z" />
<glyph unicode="&#xe9a8;" glyph-name="arrows-3_square-simple-right" d="M960 960h-896c-38.4 0-64-25.6-64-64v-896c0-38.4 25.6-64 64-64h896c38.4 0 64 25.6 64 64v896c0 38.4-25.6 64-64 64zM512 192v192h-256v128h256v192l256-256-256-256z" />
<glyph unicode="&#xe9a9;" glyph-name="arrows-3_square-simple-up" d="M0 896v-896c0-38.4 25.6-64 64-64h896c38.4 0 64 25.6 64 64v896c0 38.4-25.6 64-64 64h-896c-38.4 0-64-25.6-64-64zM768 448h-192v-256h-128v256h-192l256 256 256-256z" />
<glyph unicode="&#xe9aa;" glyph-name="arrows-3_square-up-05" d="M1024 896v-896c0-38.4-25.6-64-64-64h-896c-38.4 0-64 25.6-64 64v896c0 38.4 25.6 64 64 64h896c38.4 0 64-25.6 64-64zM896 64v768h-768v-768h768zM729.6 384l-89.6-89.6-128 128-128-128-89.6 89.6 217.6 217.6z" />
<glyph unicode="&#xe9ab;" glyph-name="arrows-e_archive-e-download" d="M512 448l256 256h-192v256h-128v-256h-192zM960 960h-192v-128h128v-512h-768v512h128v128h-192c-38.4 0-64-25.6-64-64v-896c0-38.4 25.6-64 64-64h896c38.4 0 64 25.6 64 64v896c0 38.4-25.6 64-64 64zM128 64v128h768v-128h-768z" />
<glyph unicode="&#xe9ac;" glyph-name="arrows-e_archive-e-upload" d="M448 704v-256h128v256h192l-256 256-256-256zM960 960h-192v-128h128v-512h-768v512h128v128h-192c-38.4 0-64-25.6-64-64v-896c0-38.4 25.6-64 64-64h896c38.4 0 64 25.6 64 64v896c0 38.4-25.6 64-64 64zM128 64v128h768v-128h-768z" />
<glyph unicode="&#xe9ad;" glyph-name="arrows-e_circle-e-down-04" d="M320 576l192-256 192 256zM1024 448c0 281.6-230.4 512-512 512s-512-230.4-512-512c0-281.6 230.4-512 512-512s512 230.4 512 512zM128 448c0 211.2 172.8 384 384 384s384-172.8 384-384-172.8-384-384-384-384 172.8-384 384z" />
<glyph unicode="&#xe9ae;" glyph-name="arrows-e_circle-e-down-12" d="M294.4 512l89.6 89.6 128-128 128 128 89.6-89.6-217.6-217.6zM1024 448c0 281.6-230.4 512-512 512s-512-230.4-512-512c0-281.6 230.4-512 512-512s512 230.4 512 512zM128 448c0 211.2 172.8 384 384 384s384-172.8 384-384-172.8-384-384-384-384 172.8-384 384z" />
<glyph unicode="&#xe9af;" glyph-name="arrows-e_circle-e-left-02" d="M640 640l-256-192 256-192zM512-64c281.6 0 512 230.4 512 512s-230.4 512-512 512-512-230.4-512-512 230.4-512 512-512zM512 832c211.2 0 384-172.8 384-384s-172.8-384-384-384-384 172.8-384 384 172.8 384 384 384z" />
<glyph unicode="&#xe9b0;" glyph-name="arrows-e_circle-e-left-10" d="M576 665.6l89.6-89.6-128-128 128-128-89.6-89.6-217.6 217.6zM512-64c281.6 0 512 230.4 512 512s-230.4 512-512 512-512-230.4-512-512 230.4-512 512-512zM512 832c211.2 0 384-172.8 384-384s-172.8-384-384-384-384 172.8-384 384 172.8 384 384 384z" />
<glyph unicode="&#xe9b1;" glyph-name="arrows-e_circle-e-right-01" d="M384 256l256 192-256 192zM512 960c-281.6 0-512-230.4-512-512s230.4-512 512-512 512 230.4 512 512-230.4 512-512 512zM512 64c-211.2 0-384 172.8-384 384s172.8 384 384 384 384-172.8 384-384-172.8-384-384-384z" />
<glyph unicode="&#xe9b2;" glyph-name="arrows-e_circle-e-right-09" d="M448 230.4l-89.6 89.6 128 128-128 128 89.6 89.6 217.6-217.6zM512 960c-281.6 0-512-230.4-512-512s230.4-512 512-512 512 230.4 512 512-230.4 512-512 512zM512 64c-211.2 0-384 172.8-384 384s172.8 384 384 384 384-172.8 384-384-172.8-384-384-384z" />
<glyph unicode="&#xe9b3;" glyph-name="arrows-e_circle-e-up-03" d="M704 320l-192 256-192-256zM0 448c0-281.6 230.4-512 512-512s512 230.4 512 512-230.4 512-512 512c-281.6 0-512-230.4-512-512zM896 448c0-211.2-172.8-384-384-384s-384 172.8-384 384 172.8 384 384 384 384-172.8 384-384z" />
<glyph unicode="&#xe9b4;" glyph-name="arrows-e_circle-e-up-11" d="M729.6 384l-89.6-89.6-128 128-128-128-89.6 89.6 217.6 217.6zM0 448c0-281.6 230.4-512 512-512s512 230.4 512 512-230.4 512-512 512-512-230.4-512-512zM896 448c0-211.2-172.8-384-384-384s-384 172.8-384 384 172.8 384 384 384 384-172.8 384-384z" />
<glyph unicode="&#xe9b5;" glyph-name="arrows-e_enlarge-21" d="M614.4 640l-294.4-294.4-256 256v-601.6h601.6l-256 256 294.4 294.4 256-256v601.6h-601.6l256-256zM192 128v166.4l166.4-166.4h-166.4zM832 768v-166.4l-166.4 166.4h166.4z" />
<glyph unicode="&#xe9b6;" glyph-name="arrows-e_enlarge-22" d="M409.6 640l256 256h-601.6v-601.6l256 256 294.4-294.4-256-256h601.6v601.6l-256-256-294.4 294.4zM192 768h166.4l-166.4-166.4v166.4zM832 128h-166.4l166.4 166.4v-166.4z" />
<glyph unicode="&#xe9b7;" glyph-name="arrows-e_expand" d="M896 230.4v601.6h-601.6l601.6-601.6zM768 537.6l-166.4 166.4h166.4v-166.4zM128 64h601.6l-601.6 601.6v-601.6zM256 358.4l166.4-166.4h-166.4v166.4z" />
<glyph unicode="&#xe9b8;" glyph-name="arrows-e_move-bottom-right" d="M896 153.6l-275.2 275.2-89.6-89.6 275.2-275.2h-294.4v-128h448c38.4 0 64 25.6 64 64v448h-128v-294.4zM448 512h-448v448h448v-448zM128 640h192v192h-192v-192z" />
<glyph unicode="&#xe9b9;" glyph-name="arrows-e_move-top-left" d="M1024-64h-448v448h448v-448zM704 64h192v192h-192v-192zM0 896v-448h128v294.4l275.2-275.2 89.6 89.6-275.2 275.2h294.4v128h-448c-38.4 0-64-25.6-64-64z" />
<glyph unicode="&#xe9ba;" glyph-name="arrows-e_refresh-19" d="M492.8 883.2l44.8-409.6 134.4 134.4c121.6-121.6 121.6-326.4 0-448-57.6-64-140.8-96-224-96s-166.4 32-224 96c-121.6 121.6-121.6 326.4 0 448 38.4 38.4 89.6 70.4 147.2 83.2l-38.4 121.6c-76.8-19.2-147.2-57.6-204.8-115.2-172.8-172.8-172.8-454.4 0-633.6 83.2-83.2 198.4-128 313.6-128 121.6 0 230.4 44.8 313.6 128 172.8 172.8 172.8 454.4 0 633.6l140.8 140.8-403.2 44.8z" />
<glyph unicode="&#xe9bb;" glyph-name="arrows-e_refresh-20" d="M288 672c121.6 121.6 326.4 121.6 448 0 44.8-44.8 76.8-108.8 89.6-172.8l128 19.2c-12.8 96-57.6 179.2-121.6 243.2-172.8 172.8-454.4 172.8-633.6 0l-140.8 140.8-44.8-409.6 409.6 44.8-134.4 134.4zM1011.2 403.2l-409.6-44.8 134.4-134.4c-121.6-121.6-326.4-121.6-448 0-44.8 44.8-76.8 108.8-89.6 172.8l-128-19.2c12.8-96 57.6-179.2 121.6-243.2 89.6-89.6 198.4-128 313.6-128s230.4 44.8 313.6 128l140.8-140.8 51.2 409.6z" />
<glyph unicode="&#xe9bc;" glyph-name="arrows-e_resize-h" d="M192 448l256 256v-512zM832 448l-256-256v512zM0 896h128v-896h-128v896zM896 896h128v-896h-128v896z" />
<glyph unicode="&#xe9bd;" glyph-name="arrows-e_resize-v" d="M512 768l256-256h-512zM512 128l-256 256h512zM64 960h896v-128h-896v128zM64 64h896v-128h-896v128z" />
<glyph unicode="&#xe9be;" glyph-name="arrows-e_share-26" d="M960 960h-448v-128h294.4l-403.2-403.2 89.6-89.6 403.2 403.2v-294.4h128v448c0 38.4-25.6 64-64 64zM896-64h-832c-38.4 0-64 25.6-64 64v832c0 38.4 25.6 64 64 64h256v-128h-192v-704h704v192h128v-256c0-38.4-25.6-64-64-64z" />
<glyph unicode="&#xe9bf;" glyph-name="arrows-e_share-27" d="M620.8 467.2l-89.6 89.6-403.2-403.2v294.4h-128v-448c0-38.4 25.6-64 64-64h448v128h-294.4l403.2 403.2zM960 0h-256v128h192v704h-704v-192h-128v256c0 38.4 25.6 64 64 64h832c38.4 0 64-25.6 64-64v-832c0-38.4-25.6-64-64-64z" />
<glyph unicode="&#xe9c0;" glyph-name="arrows-e_square-e-down" d="M320 576l192-256 192 256zM0 0v896c0 38.4 25.6 64 64 64h896c38.4 0 64-25.6 64-64v-896c0-38.4-25.6-64-64-64h-896c-38.4 0-64 25.6-64 64zM128 832v-768h768v768h-768z" />
<glyph unicode="&#xe9c1;" glyph-name="arrows-e_square-e-left" d="M640 640l-256-192 256-192zM64 960h896c38.4 0 64-25.6 64-64v-896c0-38.4-25.6-64-64-64h-896c-38.4 0-64 25.6-64 64v896c0 38.4 25.6 64 64 64zM896 832h-768v-768h768v768z" />
<glyph unicode="&#xe9c2;" glyph-name="arrows-e_square-e-right" d="M384 256l256 192-256 192zM960-64h-896c-38.4 0-64 25.6-64 64v896c0 38.4 25.6 64 64 64h896c38.4 0 64-25.6 64-64v-896c0-38.4-25.6-64-64-64zM128 64h768v768h-768v-768z" />
<glyph unicode="&#xe9c3;" glyph-name="arrows-e_square-e-up" d="M704 320l-192 256-192-256zM1024 896v-896c0-38.4-25.6-64-64-64h-896c-38.4 0-64 25.6-64 64v896c0 38.4 25.6 64 64 64h896c38.4 0 64-25.6 64-64zM896 64v768h-768v-768h768z" />
<glyph unicode="&#xe9c4;" glyph-name="arrows-e_zoom-circle" d="M128 576h-128v320c0 38.4 25.6 64 64 64h320v-128h-256v-256zM1024 576h-128v256h-256v128h320c38.4 0 64-25.6 64-64v-320zM960-64h-320v128h256v256h128v-320c0-38.4-25.6-64-64-64zM384-64h-320c-38.4 0-64 25.6-64 64v320h128v-256h256v-128zM512 192c-140.8 0-256 115.2-256 256s115.2 256 256 256 256-115.2 256-256-115.2-256-256-256zM512 576c-70.4 0-128-57.6-128-128s57.6-128 128-128 128 57.6 128 128-57.6 128-128 128z" />
<glyph unicode="&#xe9c5;" glyph-name="arrows-e_zoom-e" d="M128 576h-128v320c0 38.4 25.6 64 64 64h320v-128h-256v-256zM1024 576h-128v256h-256v128h320c38.4 0 64-25.6 64-64v-320zM960-64h-320v128h256v256h128v-320c0-38.4-25.6-64-64-64zM384-64h-320c-38.4 0-64 25.6-64 64v320h128v-256h256v-128z" />
<glyph unicode="&#xe9c6;" glyph-name="arrows-e_zoom-square" d="M128 576h-128v320c0 38.4 25.6 64 64 64h320v-128h-256v-256zM1024 576h-128v256h-256v128h320c38.4 0 64-25.6 64-64v-320zM960-64h-320v128h256v256h128v-320c0-38.4-25.6-64-64-64zM384-64h-320c-38.4 0-64 25.6-64 64v320h128v-256h256v-128zM768 192h-512v512h512v-512zM384 320h256v256h-256v-256z" />
<glyph unicode="&#xe9c7;" glyph-name="arrows-e_zoom-triangles" d="M0 512l448 448h-448zM576 960l448-448v448zM1024 384l-448-448h448zM448-64l-448 448v-448z" />
<glyph unicode="&#xe9c8;" glyph-name="weather_celsius" d="M192 576c-108.8 0-192 83.2-192 192s83.2 192 192 192 192-83.2 192-192-83.2-192-192-192zM192 832c-38.4 0-64-25.6-64-64s25.6-64 64-64 64 25.6 64 64-25.6 64-64 64zM787.2-64c-224 0-403.2 179.2-403.2 403.2s179.2 403.2 403.2 403.2c70.4 0 140.8-19.2 204.8-51.2 32-19.2 38.4-57.6 25.6-89.6-19.2-25.6-57.6-38.4-89.6-19.2-44.8 25.6-89.6 38.4-140.8 38.4-153.6 0-275.2-128-275.2-281.6s121.6-275.2 275.2-275.2c44.8 0 96 12.8 134.4 32 32 19.2 70.4 6.4 89.6-25.6s6.4-70.4-25.6-89.6c-57.6-25.6-128-44.8-198.4-44.8z" />
<glyph unicode="&#xe9c9;" glyph-name="weather_cloud-drop" d="M384 64c0 76.8 128 211.2 128 211.2s128-134.4 128-211.2c0-83.2-64-128-128-128s-128 44.8-128 128zM768 192h-64v128h64c70.4 0 128 57.6 128 128 0 83.2-57.6 166.4-249.6 89.6-6.4 64-25.6 294.4-262.4 294.4-140.8 0-256-115.2-256-256 0-121.6 83.2-224 204.8-249.6l-25.6-128c-179.2 38.4-307.2 198.4-307.2 377.6 0 211.2 172.8 384 384 384 166.4 0 307.2-102.4 358.4-256 153.6 12.8 281.6-108.8 281.6-256 0-140.8-115.2-256-256-256z" />
<glyph unicode="&#xe9ca;" glyph-name="weather_cloud-fog-31" d="M32 422.4c-19.2 51.2-32 102.4-32 153.6 0 211.2 172.8 384 384 384 166.4 0 307.2-102.4 358.4-256 153.6 12.8 281.6-108.8 281.6-256h-128c0 83.2-57.6 166.4-249.6 89.6-6.4 64-25.6 294.4-262.4 294.4-140.8 0-256-115.2-256-256 0-38.4 6.4-70.4 19.2-102.4l-115.2-51.2zM0 320h1024v-128h-1024v128zM128 64h768v-128h-768v128z" />
<glyph unicode="&#xe9cb;" glyph-name="weather_cloud-fog-32" d="M768 192h-192v128h192c70.4 0 128 57.6 128 128 0 83.2-57.6 166.4-249.6 89.6-6.4 64-25.6 294.4-262.4 294.4-121.6 0-224-83.2-249.6-204.8l-128 25.6c38.4 179.2 198.4 307.2 377.6 307.2 166.4 0 307.2-102.4 358.4-256 153.6 12.8 281.6-108.8 281.6-256 0-140.8-115.2-256-256-256zM0 320h448v-128h-448v128zM128 512h448v-128h-448v128zM128 128h448v-128h-448v128z" />
<glyph unicode="&#xe9cc;" glyph-name="weather_cloud-hail" d="M32 422.4c-19.2 51.2-32 102.4-32 153.6 0 211.2 172.8 384 384 384 166.4 0 307.2-102.4 358.4-256 153.6 12.8 281.6-108.8 281.6-256 0-38.4-25.6-64-64-64s-64 25.6-64 64c0 83.2-83.2 153.6-172.8 121.6-38.4-19.2-83.2 6.4-89.6 44.8-19.2 128-121.6 217.6-249.6 217.6-140.8 0-256-115.2-256-256 0-38.4 6.4-70.4 19.2-102.4s0-70.4-32-83.2c-32-12.8-70.4 0-83.2 32zM448 64h128v-128h-128v128zM256 192h128v-128h-128v128zM640 192h128v-128h-128v128zM448 320h128v-192h-128v192zM256 448h128v-192h-128v192zM640 448h128v-192h-128v192z" />
<glyph unicode="&#xe9cd;" glyph-name="weather_cloud-light" d="M473.6-51.2c-32 19.2-38.4 57.6-19.2 89.6l64 89.6h-256l192 294.4c25.6 25.6 64 32 96 12.8 25.6-19.2 32-57.6 12.8-89.6l-64-89.6h256l-192-294.4c-19.2-25.6-57.6-32-89.6-12.8zM940.8 256l-83.2 96c25.6 25.6 38.4 57.6 38.4 96 0 89.6-64 160-249.6 89.6-6.4 64-25.6 294.4-262.4 294.4-140.8 0-256-115.2-256-256 0-83.2 38.4-153.6 102.4-204.8l-76.8-102.4c-96 70.4-153.6 185.6-153.6 307.2 0 211.2 172.8 384 384 384 166.4 0 307.2-102.4 358.4-256 153.6 12.8 281.6-108.8 281.6-256 0-70.4-32-140.8-83.2-192z" />
<glyph unicode="&#xe9ce;" glyph-name="weather_cloud-moon" d="M940.8 384c44.8 51.2 76.8 121.6 83.2 192-217.6-19.2-396.8 160-384 384-147.2-12.8-268.8-115.2-307.2-256-185.6-25.6-332.8-192-332.8-384 0-211.2 172.8-384 384-384h384c140.8 0 256 115.2 256 256 0 76.8-32 140.8-83.2 192zM768 64h-384c-140.8 0-256 115.2-256 256s115.2 256 256 256c198.4 0 243.2-153.6 262.4-294.4 192 76.8 249.6-12.8 249.6-89.6 0-70.4-57.6-128-128-128z" />
<glyph unicode="&#xe9cf;" glyph-name="weather_cloud-rain" d="M940.8 256l-83.2 96c25.6 25.6 38.4 57.6 38.4 96 0 64-38.4 172.8-249.6 89.6-6.4 64-25.6 294.4-262.4 294.4-140.8 0-256-115.2-256-256 0-83.2 38.4-153.6 102.4-204.8l-76.8-102.4c-96 70.4-153.6 185.6-153.6 307.2 0 211.2 172.8 384 384 384 166.4 0 307.2-102.4 358.4-256 153.6 12.8 281.6-108.8 281.6-256 0-70.4-32-140.8-83.2-192zM448 128h128v-192h-128v192zM256 256h128v-192h-128v192zM640 256h128v-192h-128v192z" />
<glyph unicode="&#xe9d0;" glyph-name="weather_cloud-snow-34" d="M32 422.4c-19.2 51.2-32 102.4-32 153.6 0 211.2 172.8 384 384 384 166.4 0 307.2-102.4 358.4-256 153.6 12.8 281.6-108.8 281.6-256 0-38.4-25.6-64-64-64s-64 25.6-64 64c0 83.2-83.2 153.6-172.8 121.6-38.4-19.2-83.2 6.4-89.6 44.8-19.2 128-121.6 217.6-249.6 217.6-140.8 0-256-115.2-256-256 0-38.4 6.4-70.4 19.2-102.4s0-70.4-32-83.2c-32-12.8-70.4 0-83.2 32zM448 64h128v-128h-128v128zM256 192h128v-128h-128v128zM640 192h128v-128h-128v128zM448 320h128v-128h-128v128zM256 448h128v-128h-128v128zM640 448h128v-128h-128v128z" />
<glyph unicode="&#xe9d1;" glyph-name="weather_cloud-snow-42" d="M768 262.4l-64 115.2-128-76.8v147.2h-128v-147.2l-128 76.8-64-115.2 128-70.4-128-70.4 64-115.2 128 76.8v-147.2h128v147.2l128-76.8 64 115.2-128 70.4zM940.8 256l-83.2 96c25.6 25.6 38.4 57.6 38.4 96 0 89.6-64 160-249.6 89.6-6.4 64-25.6 294.4-262.4 294.4-140.8 0-256-115.2-256-256 0-83.2 38.4-153.6 102.4-204.8l-76.8-102.4c-96 70.4-153.6 185.6-153.6 307.2 0 211.2 172.8 384 384 384 166.4 0 307.2-102.4 358.4-256 153.6 12.8 281.6-108.8 281.6-256 0-70.4-32-140.8-83.2-192z" />
<glyph unicode="&#xe9d2;" glyph-name="weather_cloud-sun-17" d="M1024 608c0 160-128 288-288 288-108.8 0-198.4-57.6-249.6-140.8-32 6.4-64 12.8-102.4 12.8-211.2 0-384-172.8-384-384s172.8-384 384-384h384c140.8 0 256 115.2 256 256 0 64-25.6 121.6-64 166.4 38.4 51.2 64 115.2 64 185.6zM768 128h-384c-140.8 0-256 115.2-256 256s115.2 256 256 256c198.4 0 243.2-153.6 262.4-294.4 185.6 70.4 249.6-6.4 249.6-89.6 0-70.4-57.6-128-128-128z" />
<glyph unicode="&#xe9d3;" glyph-name="weather_compass" d="M512 960c-281.6 0-512-230.4-512-512s230.4-512 512-512 512 230.4 512 512-230.4 512-512 512zM576 384l-128-256-128 512 512-128-256-128z" />
<glyph unicode="&#xe9d4;" glyph-name="weather_drop-15" d="M512 761.6c121.6-153.6 256-352 256-441.6 0-179.2-147.2-256-256-256s-256 76.8-256 256c0 96 134.4 288 256 441.6zM512 960c0 0-384-416-384-640 0-243.2 198.4-384 384-384s384 140.8 384 384c0 224-384 640-384 640v0z" />
<glyph unicode="&#xe9d5;" glyph-name="weather_drops" d="M256 243.2c0 147.2 256 396.8 256 396.8s256-249.6 256-396.8c0-153.6-134.4-243.2-256-243.2s-256 89.6-256 243.2zM0 659.2c0 89.6 140.8 236.8 140.8 236.8s140.8-147.2 140.8-236.8c6.4-96-70.4-147.2-140.8-147.2s-140.8 51.2-140.8 147.2zM1024 659.2c0 89.6-140.8 236.8-140.8 236.8s-140.8-147.2-140.8-236.8c0-96 76.8-147.2 140.8-147.2s140.8 51.2 140.8 147.2z" />
<glyph unicode="&#xe9d6;" glyph-name="weather_eclipse" d="M512 960c-281.6 0-512-230.4-512-512s230.4-512 512-512 512 230.4 512 512-230.4 512-512 512zM524.8 64c-128 76.8-217.6 217.6-217.6 384s89.6 307.2 217.6 384c204.8-6.4 371.2-179.2 371.2-384s-166.4-377.6-371.2-384z" />
<glyph unicode="&#xe9d7;" glyph-name="weather_fahrenheit" d="M192 576c-108.8 0-192 83.2-192 192s83.2 192 192 192 192-83.2 192-192-83.2-192-192-192zM192 832c-38.4 0-64-25.6-64-64s25.6-64 64-64 64 25.6 64 64-25.6 64-64 64zM1024 576v128h-448c-38.4 0-64-25.6-64-64v-704h128v320h384v128h-384v192h384z" />
<glyph unicode="&#xe9d8;" glyph-name="weather_fog" d="M512 646.4c-44.8 0-89.6 12.8-128 38.4l-64 44.8c-32 19.2-70.4 19.2-108.8 0l-115.2-70.4-64 108.8 115.2 70.4c76.8 44.8 166.4 44.8 243.2-6.4l70.4-44.8c32-19.2 70.4-19.2 108.8 0l64 44.8c70.4 51.2 166.4 51.2 243.2 6.4l115.2-70.4-64-108.8-115.2 70.4c-32 19.2-76.8 19.2-108.8 0l-64-44.8c-38.4-25.6-83.2-38.4-128-38.4zM512 25.6c-44.8 0-89.6 12.8-128 38.4l-64 44.8c-32 19.2-70.4 19.2-108.8 0l-115.2-70.4-64 108.8 115.2 70.4c76.8 44.8 172.8 44.8 243.2-6.4l70.4-44.8c32-19.2 76.8-19.2 108.8 0l70.4 44.8c70.4 51.2 166.4 51.2 243.2 6.4l115.2-70.4-64-108.8-115.2 70.4c-32 19.2-76.8 19.2-108.8 0l-70.4-44.8c-38.4-25.6-83.2-38.4-128-38.4zM512 332.8c-44.8 0-89.6 12.8-128 38.4l-64 44.8c-32 19.2-70.4 19.2-108.8 0l-115.2-64-64 108.8 115.2 70.4c76.8 44.8 166.4 38.4 243.2-6.4l70.4-44.8c32-19.2 76.8-19.2 108.8 0l70.4 44.8c70.4 51.2 166.4 51.2 243.2 6.4l115.2-70.4-64-108.8-115.2 70.4c-32 19.2-76.8 19.2-108.8 0l-70.4-51.2c-38.4-25.6-83.2-38.4-128-38.4z" />
<glyph unicode="&#xe9d9;" glyph-name="weather_forecast" d="M128-64c-38.4 0-64 25.6-64 64v896c0 38.4 25.6 64 64 64s64-25.6 64-64v-896c0-38.4-25.6-64-64-64zM896 448l-576-128v512l576-128z" />
<glyph unicode="&#xe9da;" glyph-name="weather_hurricane-44" d="M512-64c-108.8 0-211.2 32-294.4 89.6-25.6 19.2-38.4 57.6-12.8 89.6 19.2 25.6 57.6 38.4 89.6 12.8 108.8-76.8 307.2-83.2 422.4-6.4 32 19.2 70.4 12.8 89.6-19.2s12.8-70.4-19.2-89.6c-76.8-51.2-172.8-76.8-275.2-76.8zM512 192c-172.8 0-332.8 51.2-428.8 140.8-25.6 25.6-25.6 64-6.4 89.6 25.6 25.6 70.4 25.6 96 0 70.4-64 198.4-102.4 339.2-102.4 147.2 0 275.2 44.8 345.6 108.8 25.6 25.6 64 25.6 89.6 0s25.6-64 0-89.6c-96-89.6-256-147.2-435.2-147.2zM512 448c-256 0-512 89.6-512 256s256 256 512 256 512-89.6 512-256-256-256-512-256zM512 832c-236.8 0-384-83.2-384-128s147.2-128 384-128 384 83.2 384 128-147.2 128-384 128z" />
<glyph unicode="&#xe9db;" glyph-name="weather_hurricane-45" d="M960 832h-896c-38.4 0-64 25.6-64 64s25.6 64 64 64h896c38.4 0 64-25.6 64-64s-25.6-64-64-64zM896 576h-640c-38.4 0-64 25.6-64 64s25.6 64 64 64h640c38.4 0 64-25.6 64-64s-25.6-64-64-64zM640 320h-320c-38.4 0-64 25.6-64 64s25.6 64 64 64h320c38.4 0 64-25.6 64-64s-25.6-64-64-64zM384 64h-128c-38.4 0-64 25.6-64 64s25.6 64 64 64h128c38.4 0 64-25.6 64-64s-25.6-64-64-64z" />
<glyph unicode="&#xe9dc;" glyph-name="weather_moon-cloud-drop" d="M384 64c0 76.8 128 211.2 128 211.2s128-134.4 128-211.2c0-83.2-64-128-128-128s-128 44.8-128 128zM953.6 576c44.8 44.8 70.4 96 70.4 160 0 19.2-6.4 38.4-6.4 57.6-115.2-70.4-275.2 25.6-249.6 166.4-83.2-12.8-147.2-64-179.2-140.8-19.2 6.4-51.2 12.8-76.8 12.8-128 0-243.2-76.8-294.4-192-121.6 0-217.6-102.4-217.6-224s102.4-224 224-224h96v128h-96c-51.2 0-96 44.8-96 96s44.8 96 96 96c19.2 0 70.4-12.8 89.6-19.2l12.8 64c19.2 83.2 96 147.2 185.6 147.2s166.4-64 185.6-147.2l12.8-64c19.2 6.4 70.4 19.2 89.6 19.2 51.2 0 96-44.8 96-96s-44.8-96-96-96h-96v-128h96c121.6 0 224 102.4 224 224 0 64-25.6 121.6-70.4 160z" />
<glyph unicode="&#xe9dd;" glyph-name="weather_moon-cloud-fog" d="M0 128h1024v-128h-1024v128zM953.6 512c44.8 44.8 70.4 96 70.4 160 0 19.2-6.4 38.4-6.4 57.6-115.2-70.4-275.2 25.6-249.6 166.4-83.2-12.8-147.2-64-179.2-140.8-19.2 6.4-51.2 12.8-76.8 12.8-128 0-243.2-76.8-294.4-192-121.6 0-217.6-102.4-217.6-224 0-51.2 12.8-96 44.8-134.4l102.4 76.8c-12.8 19.2-19.2 38.4-19.2 57.6 0 51.2 44.8 96 96 96 19.2 0 70.4-12.8 89.6-19.2l12.8 64c19.2 83.2 96 147.2 185.6 147.2s166.4-64 185.6-147.2l12.8-64c19.2 6.4 70.4 19.2 89.6 19.2 51.2 0 96-44.8 96-96 0-19.2-6.4-38.4-19.2-57.6l102.4-76.8c32 38.4 44.8 83.2 44.8 134.4 0 64-25.6 121.6-70.4 160z" />
<glyph unicode="&#xe9de;" glyph-name="weather_moon-cloud-hail" d="M448 320h128v-192h-128v192zM256 448h128v-192h-128v192zM640 448h128v-192h-128v192zM256 192h128v-128h-128v128zM448 64h128v-128h-128v128zM640 192h128v-128h-128v128zM1024 736c0 19.2-6.4 38.4-6.4 57.6-115.2-70.4-275.2 25.6-249.6 166.4-57.6-6.4-115.2-38.4-147.2-83.2-32 12.8-70.4 19.2-108.8 19.2-128 0-243.2-76.8-294.4-192-121.6 0-217.6-102.4-217.6-224 0-70.4 32-134.4 89.6-179.2l76.8 102.4c-25.6 19.2-38.4 44.8-38.4 76.8 0 51.2 44.8 96 96 96 19.2 0 70.4-12.8 89.6-19.2l12.8 64c19.2 83.2 96 147.2 185.6 147.2s166.4-64 185.6-147.2l12.8-64c19.2 6.4 70.4 19.2 89.6 19.2 51.2 0 96-44.8 96-96 0-32-12.8-57.6-38.4-76.8l76.8-102.4c57.6 44.8 89.6 108.8 89.6 179.2 0 51.2-19.2 96-44.8 128 25.6 38.4 44.8 83.2 44.8 128z" />
<glyph unicode="&#xe9df;" glyph-name="weather_moon-cloud-light" d="M473.6-51.2c-32 19.2-38.4 57.6-19.2 89.6l64 89.6h-256l192 294.4c25.6 25.6 64 32 96 12.8 25.6-19.2 32-57.6 12.8-89.6l-64-89.6h256l-192-294.4c-19.2-25.6-57.6-32-89.6-12.8zM953.6 576c44.8 44.8 70.4 96 70.4 160 0 19.2-6.4 38.4-6.4 57.6-115.2-70.4-275.2 25.6-249.6 166.4-83.2-12.8-147.2-64-179.2-140.8-19.2 6.4-51.2 12.8-76.8 12.8-128 0-243.2-76.8-294.4-192-121.6 0-217.6-102.4-217.6-224 0-108.8 76.8-198.4 179.2-217.6l25.6 128c-44.8 6.4-76.8 44.8-76.8 89.6 0 51.2 44.8 96 96 96 19.2 0 70.4-12.8 89.6-19.2l12.8 64c19.2 83.2 96 147.2 185.6 147.2s166.4-64 185.6-147.2l12.8-64c19.2 6.4 70.4 19.2 89.6 19.2 51.2 0 96-44.8 96-96 0-44.8-32-83.2-76.8-96l25.6-128c102.4 19.2 179.2 115.2 179.2 217.6 0 70.4-25.6 128-70.4 166.4z" />
<glyph unicode="&#xe9e0;" glyph-name="weather_moon-cloud-rain" d="M448 192h128v-192h-128v192zM256 320h128v-192h-128v192zM640 320h128v-192h-128v192zM1024 736c0 19.2-6.4 38.4-6.4 57.6-115.2-70.4-275.2 25.6-249.6 166.4-57.6-6.4-115.2-38.4-147.2-83.2-32 12.8-70.4 19.2-108.8 19.2-128 0-243.2-76.8-294.4-192-121.6 0-217.6-102.4-217.6-224 0-70.4 32-134.4 89.6-179.2l76.8 102.4c-25.6 19.2-38.4 44.8-38.4 76.8 0 51.2 44.8 96 96 96 19.2 0 70.4-12.8 89.6-19.2l12.8 64c19.2 83.2 96 147.2 185.6 147.2s166.4-64 185.6-147.2l12.8-64c19.2 6.4 70.4 19.2 89.6 19.2 51.2 0 96-44.8 96-96 0-32-12.8-57.6-38.4-76.8l76.8-102.4c57.6 44.8 89.6 108.8 89.6 179.2 0 51.2-19.2 96-44.8 128 25.6 38.4 44.8 83.2 44.8 128z" />
<glyph unicode="&#xe9e1;" glyph-name="weather_moon-cloud-snow-61" d="M448 64h128v-128h-128v128zM256 192h128v-128h-128v128zM640 192h128v-128h-128v128zM448 320h128v-128h-128v128zM256 448h128v-128h-128v128zM640 448h128v-128h-128v128zM1024 736c0 19.2-6.4 38.4-6.4 57.6-115.2-70.4-275.2 25.6-249.6 166.4-57.6-6.4-115.2-38.4-147.2-83.2-32 12.8-70.4 19.2-108.8 19.2-128 0-243.2-76.8-294.4-192-121.6 0-217.6-102.4-217.6-224 0-70.4 32-134.4 89.6-179.2l76.8 102.4c-25.6 19.2-38.4 44.8-38.4 76.8 0 51.2 44.8 96 96 96 19.2 0 70.4-12.8 89.6-19.2l12.8 64c19.2 83.2 96 147.2 185.6 147.2s166.4-64 185.6-147.2l12.8-64c19.2 6.4 70.4 19.2 89.6 19.2 51.2 0 96-44.8 96-96 0-32-12.8-57.6-38.4-76.8l76.8-102.4c57.6 44.8 89.6 108.8 89.6 179.2 0 51.2-19.2 96-44.8 128 25.6 38.4 44.8 83.2 44.8 128z" />
<glyph unicode="&#xe9e2;" glyph-name="weather_moon-cloud-snow-62" d="M768 262.4l-64 115.2-128-76.8v147.2h-128v-147.2l-128 76.8-64-115.2 128-70.4-128-70.4 64-115.2 128 76.8v-147.2h128v147.2l128-76.8 64 115.2-128 70.4zM1024 736c0 19.2-6.4 38.4-6.4 57.6-25.6-12.8-57.6-25.6-89.6-25.6-96 0-172.8 89.6-160 192-57.6-6.4-115.2-38.4-147.2-83.2-32 12.8-70.4 19.2-108.8 19.2-128 0-243.2-76.8-294.4-192-121.6 0-217.6-102.4-217.6-224 0-70.4 32-134.4 89.6-179.2l76.8 102.4c-25.6 19.2-38.4 44.8-38.4 76.8 0 51.2 44.8 96 96 96 19.2 0 70.4-12.8 89.6-19.2l12.8 64c19.2 83.2 96 147.2 185.6 147.2s166.4-64 185.6-147.2l12.8-64c19.2 6.4 70.4 19.2 89.6 19.2 51.2 0 96-44.8 96-96 0-32-12.8-57.6-38.4-76.8l76.8-102.4c57.6 44.8 89.6 108.8 89.6 179.2 0 51.2-19.2 96-44.8 128 25.6 38.4 44.8 83.2 44.8 128z" />
<glyph unicode="&#xe9e3;" glyph-name="weather_moon-fog" d="M0 320h448v-128h-448v128zM128 128h448v-128h-448v128zM723.2 89.6l-44.8 121.6c121.6 44.8 204.8 153.6 211.2 275.2-44.8-25.6-96-38.4-153.6-38.4-185.6 0-332.8 140.8-352 320-76.8-57.6-128-153.6-128-256 0-19.2 0-38.4 6.4-51.2l-128-19.2c-6.4 19.2-6.4 44.8-6.4 70.4 0 198.4 128 364.8 313.6 428.8 51.2 12.8 96-32 83.2-76.8-12.8-25.6-12.8-44.8-12.8-64 0-121.6 102.4-224 224-224 64 0 121.6 25.6 166.4 70.4 32 38.4 96 19.2 108.8-25.6 6.4-38.4 12.8-70.4 12.8-108.8 0-192-121.6-358.4-300.8-422.4z" />
<glyph unicode="&#xe9e4;" glyph-name="weather_moon-full" d="M1024 448c0-282.77-229.23-512-512-512s-512 229.23-512 512c0 282.77 229.23 512 512 512s512-229.23 512-512z" />
<glyph unicode="&#xe9e5;" glyph-name="weather_moon-stars" d="M332.8 832c-192-51.2-332.8-230.4-332.8-441.6 0-249.6 204.8-454.4 454.4-454.4 211.2 0 384 140.8 441.6 332.8-339.2-89.6-652.8 224-563.2 563.2zM704 896c0-35.346-28.654-64-64-64s-64 28.654-64 64c0 35.346 28.654 64 64 64s64-28.654 64-64zM1024 512c0-35.346-28.654-64-64-64s-64 28.654-64 64c0 35.346 28.654 64 64 64s64-28.654 64-64zM704 576c0-35.346-28.654-64-64-64s-64 28.654-64 64c0 35.346 28.654 64 64 64s64-28.654 64-64z" />
<glyph unicode="&#xe9e6;" glyph-name="weather_moon" d="M384 960c-224-57.6-384-262.4-384-505.6 0-288 230.4-518.4 518.4-518.4 243.2 0 441.6 160 505.6 384-390.4-108.8-748.8 249.6-640 640z" />
<glyph unicode="&#xe9e7;" glyph-name="weather_rain-hail" d="M659.2 595.2c-25.6 25.6-25.6 64 0 89.6l256 256c25.6 25.6 64 25.6 89.6 0s25.6-64 0-89.6l-256-256c-25.6-25.6-64-25.6-89.6 0zM659.2 211.2c-25.6 25.6-25.6 64 0 89.6l256 256c25.6 25.6 64 25.6 89.6 0s25.6-64 0-89.6l-256-256c-25.6-25.6-64-25.6-89.6 0zM211.2 531.2c-25.6 25.6-25.6 64 0 89.6l256 256c25.6 25.6 64 25.6 89.6 0s25.6-64 0-89.6l-256-256c-25.6-25.6-64-25.6-89.6 0zM19.2 339.2c-25.6 25.6-25.6 64 0 89.6l64 64c25.6 25.6 64 25.6 89.6 0s25.6-64 0-89.6l-64-64c-25.6-25.6-64-25.6-89.6 0zM467.2 403.2c-25.6 25.6-25.6 64 0 89.6l64 64c25.6 25.6 64 25.6 89.6 0s25.6-64 0-89.6l-64-64c-25.6-25.6-64-25.6-89.6 0zM467.2 19.2c-25.6 25.6-25.6 64 0 89.6l64 64c25.6 25.6 64 25.6 89.6 0s25.6-64 0-89.6l-64-64c-25.6-25.6-64-25.6-89.6 0z" />
<glyph unicode="&#xe9e8;" glyph-name="weather_rain" d="M467.2 403.2c-25.6 25.6-25.6 64 0 89.6l448 448c25.6 25.6 64 25.6 89.6 0s25.6-64 0-89.6l-448-448c-25.6-25.6-64-25.6-89.6 0zM467.2 19.2c-25.6 25.6-25.6 64 0 89.6l448 448c25.6 25.6 64 25.6 89.6 0s25.6-64 0-89.6l-448-448c-25.6-25.6-64-25.6-89.6 0zM19.2 339.2c-25.6 25.6-25.6 64 0 89.6l448 448c25.6 25.6 64 25.6 89.6 0s25.6-64 0-89.6l-448-448c-25.6-25.6-64-25.6-89.6 0z" />
<glyph unicode="&#xe9e9;" glyph-name="weather_rainbow" d="M192 64h-128v64c0 422.4 345.6 768 768 768h64v-128h-64c-352 0-640-288-640-640v-64zM448 64h-128v64c0 281.6 230.4 512 512 512h64v-128h-64c-211.2 0-384-172.8-384-384v-64zM704 64h-128v64c0 140.8 115.2 256 256 256h64v-128h-64c-70.4 0-128-57.6-128-128v-64z" />
<glyph unicode="&#xe9ea;" glyph-name="weather_snow" d="M940.8 396.8l-140.8-38.4-160 89.6 160 89.6 147.2-38.4c32-6.4 70.4 12.8 76.8 44.8s-12.8 70.4-44.8 76.8l-108.8 32 25.6 115.2c6.4 32-12.8 70.4-44.8 76.8s-70.4-12.8-76.8-44.8l-38.4-147.2-160-96v185.6l108.8 108.8c25.6 25.6 25.6 64 0 89.6s-64 25.6-89.6 0l-83.2-83.2-83.2 83.2c-25.6 25.6-64 25.6-89.6 0s-25.6-64 0-89.6l108.8-108.8v-185.6l-160 96-38.4 147.2c-6.4 32-44.8 51.2-76.8 44.8-38.4-6.4-57.6-44.8-44.8-76.8l32-115.2-108.8-25.6c-38.4-12.8-57.6-44.8-51.2-83.2 12.8-32 44.8-51.2 83.2-44.8l147.2 38.4 153.6-89.6-160-89.6-140.8 38.4c-38.4 6.4-70.4-12.8-83.2-44.8s12.8-70.4 44.8-76.8l108.8-25.6-25.6-121.6c-6.4-32 12.8-70.4 44.8-76.8s70.4 12.8 76.8 44.8l38.4 147.2 160 96v-185.6l-108.8-108.8c-25.6-25.6-25.6-64 0-89.6s64-25.6 89.6 0l83.2 83.2 83.2-83.2c25.6-25.6 64-25.6 89.6 0s25.6 64 0 89.6l-108.8 108.8v185.6l160-89.6 38.4-147.2c6.4-32 44.8-57.6 76.8-44.8 32 6.4 57.6 44.8 44.8 76.8l-32 115.2 108.8 25.6c32 6.4 51.2 44.8 44.8 76.8s-44.8 51.2-76.8 44.8z" />
<glyph unicode="&#xe9eb;" glyph-name="weather_sun-cloud-drop" d="M384 64c0 76.8 128 211.2 128 211.2s128-134.4 128-211.2c0-83.2-64-128-128-128s-128 44.8-128 128zM953.6 576c44.8 38.4 70.4 96 70.4 160 0 121.6-102.4 224-224 224-96 0-172.8-57.6-204.8-140.8-25.6 6.4-57.6 12.8-83.2 12.8-128 0-243.2-76.8-294.4-192-121.6 0-217.6-102.4-217.6-224s102.4-224 224-224h96v128h-96c-51.2 0-96 44.8-96 96s44.8 96 96 96c19.2 0 70.4-12.8 89.6-19.2l12.8 64c19.2 83.2 96 147.2 185.6 147.2s166.4-64 185.6-147.2l12.8-64c19.2 6.4 70.4 19.2 89.6 19.2 51.2 0 96-44.8 96-96s-44.8-96-96-96h-96v-128h96c121.6 0 224 102.4 224 224 0 64-25.6 121.6-70.4 160z" />
<glyph unicode="&#xe9ec;" glyph-name="weather_sun-cloud-fog" d="M953.6 512c44.8 38.4 70.4 96 70.4 160 0 121.6-102.4 224-224 224-96 0-172.8-57.6-204.8-140.8-25.6 6.4-57.6 12.8-83.2 12.8-128 0-243.2-76.8-294.4-192-121.6 0-217.6-102.4-217.6-224 0-51.2 12.8-96 44.8-134.4l102.4 76.8c-12.8 19.2-19.2 38.4-19.2 57.6 0 51.2 44.8 96 96 96 19.2 0 70.4-12.8 89.6-19.2l12.8 64c19.2 83.2 96 147.2 185.6 147.2s166.4-64 185.6-147.2l12.8-64c19.2 6.4 70.4 19.2 89.6 19.2 51.2 0 96-44.8 96-96 0-19.2-6.4-38.4-19.2-57.6l102.4-76.8c32 38.4 44.8 83.2 44.8 134.4 0 64-25.6 121.6-70.4 160zM0 128h1024v-128h-1024v128z" />
<glyph unicode="&#xe9ed;" glyph-name="weather_sun-cloud-hail" d="M1024 736c0 121.6-102.4 224-224 224-70.4 0-134.4-32-172.8-83.2-38.4 12.8-76.8 19.2-115.2 19.2-128 0-243.2-76.8-294.4-192-121.6 0-217.6-102.4-217.6-224 0-70.4 32-134.4 89.6-179.2l76.8 102.4c-44.8 32-51.2 102.4-12.8 140.8 44.8 51.2 96 25.6 153.6 12.8 19.2 64 44.8 211.2 204.8 211.2s185.6-140.8 198.4-211.2c64 19.2 185.6 57.6 185.6-76.8 0-32-12.8-57.6-38.4-76.8l76.8-102.4c57.6 44.8 89.6 108.8 89.6 179.2 0 51.2-12.8 89.6-44.8 128 25.6 38.4 44.8 83.2 44.8 128zM448 320h128v-192h-128v192zM256 448h128v-192h-128v192zM640 448h128v-192h-128v192zM256 192h128v-128h-128v128zM448 64h128v-128h-128v128zM640 192h128v-128h-128v128z" />
<glyph unicode="&#xe9ee;" glyph-name="weather_sun-cloud-light" d="M473.6-51.2c-32 19.2-38.4 57.6-19.2 89.6l64 89.6h-256l192 294.4c25.6 25.6 64 32 96 12.8 25.6-19.2 32-57.6 12.8-89.6l-64-89.6h256l-192-294.4c-19.2-25.6-57.6-32-89.6-12.8zM953.6 576c44.8 38.4 70.4 96 70.4 160 0 121.6-102.4 224-224 224-96 0-172.8-57.6-204.8-140.8-25.6 6.4-57.6 12.8-83.2 12.8-128 0-243.2-76.8-294.4-192-121.6 0-217.6-102.4-217.6-224 0-108.8 76.8-198.4 179.2-217.6l25.6 128c-44.8 6.4-76.8 44.8-76.8 89.6 0 51.2 44.8 96 96 96 19.2 0 70.4-12.8 89.6-19.2l12.8 64c19.2 83.2 96 147.2 185.6 147.2s166.4-64 185.6-147.2l12.8-64c19.2 6.4 70.4 19.2 89.6 19.2 51.2 0 96-44.8 96-96 0-44.8-32-83.2-76.8-96l25.6-128c102.4 19.2 179.2 115.2 179.2 217.6 0 70.4-25.6 128-70.4 166.4z" />
<glyph unicode="&#xe9ef;" glyph-name="weather_sun-cloud-rain" d="M1024 672c0 121.6-102.4 224-224 224-70.4 0-134.4-32-172.8-83.2-38.4 12.8-76.8 19.2-115.2 19.2-128 0-243.2-76.8-294.4-192-121.6 0-217.6-102.4-217.6-224 0-70.4 32-134.4 89.6-179.2l76.8 102.4c-44.8 32-51.2 102.4-12.8 140.8 44.8 51.2 96 25.6 153.6 12.8 19.2 64 44.8 211.2 204.8 211.2s185.6-140.8 198.4-211.2c64 19.2 185.6 57.6 185.6-76.8 0-32-12.8-57.6-38.4-76.8l76.8-102.4c57.6 44.8 89.6 108.8 89.6 179.2 0 51.2-12.8 89.6-44.8 128 25.6 38.4 44.8 83.2 44.8 128zM448 128h128v-192h-128v192zM256 256h128v-192h-128v192zM640 256h128v-192h-128v192z" />
<glyph unicode="&#xe9f0;" glyph-name="weather_sun-cloud-snow-54" d="M1024 736c0 121.6-102.4 224-224 224-70.4 0-134.4-32-172.8-83.2-38.4 12.8-76.8 19.2-115.2 19.2-128 0-243.2-76.8-294.4-192-121.6 0-217.6-102.4-217.6-224 0-70.4 32-134.4 89.6-179.2l76.8 102.4c-25.6 19.2-38.4 44.8-38.4 76.8 0 51.2 44.8 96 96 96 19.2 0 70.4-12.8 89.6-19.2l12.8 64c19.2 83.2 96 147.2 185.6 147.2s166.4-64 185.6-147.2l12.8-64c19.2 6.4 70.4 19.2 89.6 19.2 51.2 0 96-44.8 96-96 0-32-12.8-57.6-38.4-76.8l76.8-102.4c57.6 44.8 89.6 108.8 89.6 179.2 0 51.2-12.8 89.6-44.8 128 25.6 38.4 44.8 83.2 44.8 128zM448 64h128v-128h-128v128zM256 192h128v-128h-128v128zM640 192h128v-128h-128v128zM448 320h128v-128h-128v128zM256 448h128v-128h-128v128zM640 448h128v-128h-128v128z" />
<glyph unicode="&#xe9f1;" glyph-name="weather_sun-cloud-snow-55" d="M1024 736c0 121.6-102.4 224-224 224-70.4 0-134.4-32-172.8-83.2-38.4 12.8-76.8 19.2-115.2 19.2-128 0-243.2-76.8-294.4-192-121.6 0-217.6-102.4-217.6-224 0-70.4 32-134.4 89.6-179.2l76.8 102.4c-25.6 19.2-38.4 44.8-38.4 76.8 0 51.2 44.8 96 96 96 19.2 0 70.4-12.8 89.6-19.2l12.8 64c19.2 83.2 96 147.2 185.6 147.2s166.4-64 185.6-147.2l12.8-64c19.2 6.4 70.4 19.2 89.6 19.2 51.2 0 96-44.8 96-96 0-32-12.8-57.6-38.4-76.8l76.8-102.4c57.6 44.8 89.6 108.8 89.6 179.2 0 51.2-12.8 89.6-44.8 128 25.6 38.4 44.8 83.2 44.8 128zM768 262.4l-64 115.2-128-76.8v147.2h-128v-147.2l-128 76.8-64-115.2 128-70.4-128-70.4 64-115.2 128 76.8v-147.2h128v147.2l128-76.8 64 115.2-128 70.4z" />
<glyph unicode="&#xe9f2;" glyph-name="weather_sun-cloud" d="M448 960h128v-128h-128v128zM195.248 850.782l90.483-90.547-90.547-90.483-90.483 90.547 90.547 90.483zM0 512h128v-128h-128v128zM824.286 855.254l90.547-90.483-90.483-90.547-90.547 90.483 90.483 90.547zM896 512h128v-128h-128v128zM806.4 320c-12.8 25.6-25.6 51.2-44.8 70.4 6.4 19.2 6.4 38.4 6.4 57.6 0 140.8-115.2 256-256 256s-256-115.2-256-256c0-19.2 0-38.4 6.4-57.6-19.2-19.2-32-44.8-44.8-70.4-121.6 0-217.6-102.4-217.6-224 0-51.2 12.8-96 44.8-134.4l102.4 76.8c-12.8 19.2-19.2 38.4-19.2 57.6 0 51.2 44.8 96 96 96 19.2 0 70.4-12.8 89.6-19.2l12.8 64c19.2 83.2 96 147.2 185.6 147.2s166.4-64 185.6-147.2l12.8-64c19.2 6.4 70.4 19.2 89.6 19.2 51.2 0 96-44.8 96-96 0-19.2-6.4-38.4-19.2-57.6l102.4-76.8c32 38.4 44.8 83.2 44.8 134.4 0 121.6-96 224-217.6 224z" />
<glyph unicode="&#xe9f3;" glyph-name="weather_sun-fog-30" d="M0 384h1024v-128h-1024v128zM128 128h768v-128h-768v128zM960 512h-128c0 179.2-140.8 320-320 320s-320-140.8-320-320h-128c0 249.6 198.4 448 448 448s448-198.4 448-448z" />
<glyph unicode="&#xe9f4;" glyph-name="weather_sun-fog-43" d="M0 320h448v-128h-448v128zM128 512h448v-128h-448v128zM128 128h448v-128h-448v128zM723.2 25.6l-44.8 121.6c134.4 44.8 217.6 166.4 217.6 300.8 0 179.2-140.8 320-320 320-115.2 0-217.6-64-275.2-160l-108.8 64c76.8 140.8 224 224 384 224 249.6 0 448-198.4 448-448 0-192-121.6-358.4-300.8-422.4z" />
<glyph unicode="&#xe9f5;" glyph-name="weather_wind" d="M448 512h-448v128h448c38.4 0 64 25.6 64 64s-25.6 64-64 64-64-25.6-64-64h-128c0 108.8 83.2 192 192 192s192-83.2 192-192-83.2-192-192-192zM832 0c-108.8 0-192 83.2-192 192h128c0-38.4 25.6-64 64-64s64 25.6 64 64-25.6 64-64 64h-832v128h832c108.8 0 192-83.2 192-192s-83.2-192-192-192z" />
<glyph unicode="&#xe9f6;" glyph-name="weather-e_cloud-01" d="M800 128h-576c-121.6 0-224 102.4-224 224s96 224 217.6 224c51.2 115.2 166.4 192 294.4 192s243.2-76.8 294.4-192c121.6 0 217.6-102.4 217.6-224s-102.4-224-224-224zM224 448c-51.2 0-96-44.8-96-96s44.8-96 96-96h576c51.2 0 96 44.8 96 96s-44.8 96-96 96c-19.2 0-70.4-12.8-89.6-19.2-12.8 64-32 211.2-198.4 211.2s-185.6-147.2-198.4-211.2c-19.2 6.4-70.4 19.2-89.6 19.2z" />
<glyph unicode="&#xe9f7;" glyph-name="weather-e_cloud-02" d="M768 64h-384c-211.2 0-384 172.8-384 384s172.8 384 384 384c166.4 0 307.2-102.4 358.4-256 153.6 12.8 281.6-108.8 281.6-256 0-140.8-115.2-256-256-256zM384 704c-140.8 0-256-115.2-256-256s115.2-256 256-256h384c70.4 0 128 57.6 128 128 0 64-38.4 172.8-249.6 89.6-6.4 64-25.6 294.4-262.4 294.4z" />
<glyph unicode="&#xe9f8;" glyph-name="users_add-27" d="M448 384v0c-140.8 0-256 115.2-256 256v64c0 140.8 115.2 256 256 256v0c140.8 0 256-115.2 256-256v-64c0-140.8-115.2-256-256-256zM320 256c-179.2 0-320-140.8-320-320h512v320h-192zM896 320h-128v-128h-128v-128h128v-128h128v128h128v128h-128z" />
<glyph unicode="&#xe9f9;" glyph-name="users_add-29" d="M448 832c70.4 0 128-57.6 128-128v-64c0-70.4-57.6-128-128-128s-128 57.6-128 128v64c0 70.4 57.6 128 128 128zM448 960c-140.8 0-256-115.2-256-256v-64c0-140.8 115.2-256 256-256s256 115.2 256 256v64c0 140.8-115.2 256-256 256v0zM896 320h-128v-128h-128v-128h128v-128h128v128h128v128h-128zM512-64h-512v64c0 179.2 140.8 320 320 320h192v-128h-192c-83.2 0-153.6-51.2-179.2-128h371.2v-128z" />
<glyph unicode="&#xe9fa;" glyph-name="users_badge-13" d="M960 832h-128c-38.4 0-64-25.6-64-64s-25.6-64-64-64-64 25.6-64 64c0 38.4-25.6 64-64 64h-128c-38.4 0-64-25.6-64-64s-25.6-64-64-64-64 25.6-64 64c0 38.4-25.6 64-64 64h-128c-38.4 0-64-25.6-64-64v-640c0-38.4 25.6-64 64-64h896c38.4 0 64 25.6 64 64v640c0 38.4-25.6 64-64 64zM448 256h-256v256h256v-256zM832 256h-256v64h256v-64zM832 448h-256v64h256v-64z" />
<glyph unicode="&#xe9fb;" glyph-name="users_badge-14" d="M256 448h192v-192h-192v192zM512 448h256v-64h-256v64zM512 320h256v-64h-256v64zM960 832h-128c-38.4 0-64-25.6-64-64s-25.6-64-64-64-64 25.6-64 64c0 38.4-25.6 64-64 64h-128c-38.4 0-64-25.6-64-64s-25.6-64-64-64-64 25.6-64 64c0 38.4-25.6 64-64 64h-128c-38.4 0-64-25.6-64-64v-704c0-38.4 25.6-64 64-64h896c38.4 0 64 25.6 64 64v704c0 38.4-25.6 64-64 64zM896 128h-768v576h12.8c25.6-76.8 96-128 179.2-128s153.6 51.2 179.2 128h19.2c32-76.8 102.4-128 185.6-128s153.6 51.2 179.2 128h12.8v-576z" />
<glyph unicode="&#xe9fc;" glyph-name="users_badge-15" d="M960 640h-256v128c0 108.8-83.2 192-192 192s-192-83.2-192-192v-128h-256c-38.4 0-64-25.6-64-64v-576c0-38.4 25.6-64 64-64h896c38.4 0 64 25.6 64 64v576c0 38.4-25.6 64-64 64zM448 768c0 38.4 25.6 64 64 64s64-25.6 64-64v-128h-128v128zM896 64h-768v448h768v-448zM256 384h192v-192h-192v192zM512 384h256v-64h-256v64zM512 256h256v-64h-256v64z" />
<glyph unicode="&#xe9fd;" glyph-name="users_circle-08" d="M704 512c0-106.039-85.961-192-192-192s-192 85.961-192 192c0 106.039 85.961 192 192 192s192-85.961 192-192zM512 960c-281.6 0-512-230.4-512-512s230.4-512 512-512 512 230.4 512 512-230.4 512-512 512zM768 166.4c-38.4 44.8-89.6 89.6-192 89.6h-128c-102.4 0-153.6-44.8-192-89.6-76.8 70.4-128 166.4-128 281.6 0 211.2 172.8 384 384 384s384-172.8 384-384c0-115.2-51.2-211.2-128-281.6z" />
<glyph unicode="&#xe9fe;" glyph-name="users_circle-09" d="M512 960c-281.6 0-512-230.4-512-512s230.4-512 512-512 512 230.4 512 512-230.4 512-512 512zM774.4 172.8c-25.6 44.8-76.8 64-134.4 83.2-44.8 12.8-57.6 38.4-64 76.8 70.4 25.6 128 96 128 179.2 0 108.8-83.2 192-192 192s-192-83.2-192-192c0-83.2 51.2-153.6 128-179.2-6.4-38.4-19.2-64-64-76.8-57.6-19.2-108.8-38.4-134.4-83.2-76.8 70.4-121.6 166.4-121.6 275.2 0 211.2 172.8 384 384 384s384-172.8 384-384c0-108.8-44.8-204.8-121.6-275.2z" />
<glyph unicode="&#xe9ff;" glyph-name="users_circle-10" d="M512 960c-281.6 0-512-230.4-512-512s230.4-512 512-512 512 230.4 512 512-230.4 512-512 512zM288 134.4c0 57.6 102.4 89.6 102.4 89.6 38.4-19.2 76.8-32 121.6-32s83.2 12.8 121.6 32c0 0 102.4-38.4 102.4-89.6-64-44.8-140.8-70.4-224-70.4s-160 25.6-224 70.4zM640 448c0-70.4-57.6-128-128-128s-128 57.6-128 128v64c0 70.4 57.6 128 128 128s128-57.6 128-128v-64zM832 230.4c-38.4 57.6-102.4 83.2-102.4 83.2 25.6 38.4 38.4 83.2 38.4 134.4v64c0 140.8-115.2 256-256 256s-256-115.2-256-256v-64c0-51.2 12.8-96 38.4-134.4 0 0-70.4-25.6-102.4-83.2-38.4 64-64 134.4-64 217.6 0 211.2 172.8 384 384 384s384-172.8 384-384c0-76.8-25.6-153.6-64-217.6z" />
<glyph unicode="&#xea00;" glyph-name="users_delete-28" d="M448 384v0c-140.8 0-256 115.2-256 256v64c0 140.8 115.2 256 256 256v0c140.8 0 256-115.2 256-256v-64c0-140.8-115.2-256-256-256zM320 256c-179.2 0-320-140.8-320-320h512v320h-192zM640 192v-128h384v128z" />
<glyph unicode="&#xea01;" glyph-name="users_delete-30" d="M640 192v-128h384v128zM448 832c70.4 0 128-57.6 128-128v-64c0-70.4-57.6-128-128-128s-128 57.6-128 128v64c0 70.4 57.6 128 128 128zM448 960c-140.8 0-256-115.2-256-256v-64c0-140.8 115.2-256 256-256s256 115.2 256 256v64c0 140.8-115.2 256-256 256v0zM512-64h-512v64c0 179.2 140.8 320 320 320h192v-128h-192c-83.2 0-153.6-51.2-179.2-128h371.2v-128z" />
<glyph unicode="&#xea02;" glyph-name="users_man-20" d="M512 896v-128h230.4l-179.2-179.2c-51.2 32-115.2 51.2-179.2 51.2-179.2 0-320-140.8-320-320s140.8-320 320-320 320 140.8 320 320c0 64-19.2 128-51.2 179.2l179.2 179.2v-230.4h128v448h-448zM384 128c-108.8 0-192 83.2-192 192s83.2 192 192 192 192-83.2 192-192-83.2-192-192-192z" />
<glyph unicode="&#xea03;" glyph-name="users_multiple-11" d="M512 576v0c-108.8 0-192 83.2-192 192v0c0 108.8 83.2 192 192 192v0c108.8 0 192-83.2 192-192v0c0-108.8-83.2-192-192-192zM640-64h-256v256l-128 128v192h512v-192l-128-128zM128 640v0c-70.4 0-128 57.6-128 128v0c0 70.4 57.6 128 128 128v0c70.4 0 128-57.6 128-128v0c0-70.4-57.6-128-128-128zM192 294.4v281.6h-192v-192l64-64v-256h192v166.4zM896 640v0c70.4 0 128 57.6 128 128v0c0 70.4-57.6 128-128 128v0c-70.4 0-128-57.6-128-128v0c0-70.4 57.6-128 128-128zM832 294.4v281.6h192v-192l-64-64v-256h-192v166.4z" />
<glyph unicode="&#xea04;" glyph-name="users_multiple-19" d="M652.8 230.4l-172.8 128c57.6 44.8 96 108.8 96 185.6v51.2c0 121.6-89.6 230.4-211.2 236.8-128 6.4-236.8-96-236.8-224v-64c0-76.8 38.4-140.8 96-185.6l-172.8-134.4c-32-25.6-51.2-64-51.2-102.4v-121.6c0-38.4 25.6-64 64-64h576c38.4 0 64 25.6 64 64v128c0 38.4-19.2 76.8-51.2 102.4zM966.4 550.4l-115.2 76.8c25.6 25.6 44.8 64 44.8 108.8v57.6c0 76.8-57.6 153.6-134.4 166.4s-140.8-32-172.8-89.6c70.4-64 115.2-153.6 115.2-256v-64c0-57.6-12.8-115.2-38.4-160 0 0 76.8-57.6 76.8-64h217.6c38.4 0 64 25.6 64 64v51.2c0 44.8-19.2 83.2-57.6 108.8z" />
<glyph unicode="&#xea05;" glyph-name="users_single-01" d="M512 384v0c-140.8 0-256 115.2-256 256v64c0 140.8 115.2 256 256 256v0c140.8 0 256-115.2 256-256v-64c0-140.8-115.2-256-256-256zM640 256h-256c-179.2 0-320-140.8-320-320v0h896c0 179.2-140.8 320-320 320z" />
<glyph unicode="&#xea06;" glyph-name="users_single-02" d="M512 832c70.4 0 128-57.6 128-128v-64c0-70.4-57.6-128-128-128s-128 57.6-128 128v64c0 70.4 57.6 128 128 128zM512 960c-140.8 0-256-115.2-256-256v-64c0-140.8 115.2-256 256-256s256 115.2 256 256v64c0 140.8-115.2 256-256 256v0zM576 192c96 0 179.2-51.2 224-128h-569.6c44.8 76.8 128 128 224 128h121.6zM576 320h-128c-211.2 0-384-172.8-384-384v0h896c0 211.2-172.8 384-384 384v0z" />
<glyph unicode="&#xea07;" glyph-name="users_single-03" d="M512 960c-140.8 0-256-115.2-256-256v-192c0-140.8 115.2-256 256-256s256 115.2 256 256v192c0 140.8-115.2 256-256 256zM844.8 326.4c-64-115.2-192-198.4-332.8-198.4s-268.8 76.8-332.8 198.4c-108.8-70.4-179.2-192-179.2-326.4 0-38.4 25.6-64 64-64h896c38.4 0 64 25.6 64 64 0 134.4-70.4 256-179.2 326.4z" />
<glyph unicode="&#xea08;" glyph-name="users_single-04" d="M755.2 364.8c44.8 57.6 76.8 128 76.8 211.2v64c0 179.2-140.8 320-320 320s-320-140.8-320-320v-64c0-83.2 32-153.6 76.8-211.2-153.6-44.8-268.8-192-268.8-364.8 0-38.4 25.6-64 64-64h896c38.4 0 64 25.6 64 64 0 172.8-115.2 320-268.8 364.8zM320 640c0 108.8 83.2 192 192 192s192-83.2 192-192v-64c0-108.8-83.2-192-192-192s-192 83.2-192 192v64zM134.4 64c25.6 108.8 128 192 249.6 192h256c121.6 0 217.6-83.2 249.6-192h-755.2z" />
<glyph unicode="&#xea09;" glyph-name="users_single-05" d="M512 960c-140.8 0-256-115.2-256-256v-64c0-140.8 115.2-256 256-256s256 115.2 256 256v64c0 140.8-115.2 256-256 256zM768 358.4c-64-64-153.6-102.4-256-102.4s-192 38.4-256 102.4c-115.2-38.4-192-121.6-192-230.4v-192h896v192c0 108.8-76.8 192-192 230.4z" />
<glyph unicode="&#xea0a;" glyph-name="users_single-body" d="M787.2 352c-76.8 25.6-121.6 51.2-134.4 76.8 70.4 44.8 115.2 121.6 115.2 211.2v64c0 140.8-115.2 256-256 256s-256-115.2-256-256v-64c0-89.6 44.8-166.4 115.2-217.6-19.2-19.2-64-51.2-134.4-76.8-102.4-32-172.8-128-172.8-236.8v-172.8h896v172.8c0 108.8-70.4 204.8-172.8 243.2zM384 704c0 70.4 57.6 128 128 128s128-57.6 128-128v-64c0-70.4-57.6-128-128-128s-128 57.6-128 128v64zM832 64h-640v44.8c0 51.2 32 102.4 83.2 115.2 115.2 38.4 192 89.6 224 153.6h25.6c32-64 102.4-115.2 224-153.6 51.2-19.2 83.2-64 83.2-115.2v-44.8z" />
<glyph unicode="&#xea0b;" glyph-name="users_square-31" d="M960 960h-896c-38.4 0-64-25.6-64-64v-896c0-38.4 25.6-64 64-64h896c38.4 0 64 25.6 64 64v896c0 38.4-25.6 64-64 64zM896 64h-64c0 96-96 192-192 192h-256c-96 0-192-96-192-192h-64v768h768v-768zM704 512c0-106.039-85.961-192-192-192s-192 85.961-192 192c0 106.039 85.961 192 192 192s192-85.961 192-192z" />
<glyph unicode="&#xea0c;" glyph-name="users_square-32" d="M960 960h-896c-38.4 0-64-25.6-64-64v-896c0-38.4 25.6-64 64-64h896c38.4 0 64 25.6 64 64v896c0 38.4-25.6 64-64 64zM896 64h-64c0 128-44.8 166.4-128 192-44.8 12.8-96 38.4-115.2 76.8 70.4 32 115.2 102.4 115.2 179.2v64c0 108.8-83.2 192-192 192s-192-83.2-192-192v-64c0-76.8 44.8-147.2 115.2-172.8-19.2-38.4-70.4-64-115.2-83.2-83.2-25.6-128-64-128-192h-64v768h768v-768z" />
<glyph unicode="&#xea0d;" glyph-name="users_square-33" d="M960 960h-896c-38.4 0-64-25.6-64-64v-896c0-38.4 25.6-64 64-64h896c38.4 0 64 25.6 64 64v896c0 38.4-25.6 64-64 64zM256 128c0 12.8 25.6 38.4 64 57.6l70.4 38.4c38.4-19.2 76.8-32 121.6-32s83.2 12.8 121.6 32l70.4-38.4c38.4-19.2 64-44.8 64-57.6v-64h-512v64zM640 448c0-70.4-57.6-128-128-128s-128 57.6-128 128v64c0 70.4 57.6 128 128 128s128-57.6 128-128v-64zM896 128c0 83.2-89.6 147.2-128 166.4l-38.4 19.2c25.6 38.4 38.4 83.2 38.4 134.4v64c0 140.8-115.2 256-256 256s-256-115.2-256-256v-64c0-51.2 12.8-96 38.4-134.4l-38.4-19.2c-38.4-19.2-128-83.2-128-166.4v704h768v-704z" />
<glyph unicode="&#xea0e;" glyph-name="users_woman-21" d="M832 640c0 179.2-140.8 320-320 320s-320-140.8-320-320c0-153.6 108.8-281.6 256-313.6v-134.4h-128v-128h128v-128h128v128h128v128h-128v134.4c147.2 32 256 160 256 313.6zM320 640c0 108.8 83.2 192 192 192s192-83.2 192-192-83.2-192-192-192-192 83.2-192 192z" />
<glyph unicode="&#xea0f;" glyph-name="ui-1_analytics-88" d="M960 960h-896c-35.392 0-64-28.608-64-64v-896c0-35.392 28.608-64 64-64h896c35.392 0 64 28.608 64 64v896c0 35.392-28.608 64-64 64zM896 64h-768v320h162.24l93.76 140.608 256-384 162.24 243.392h93.76v-320zM896 512h-162.24l-93.76-140.608-256 384-162.24-243.392h-93.76v320h768v-320z" />
<glyph unicode="&#xea10;" glyph-name="ui-1_analytics-89" d="M512 960c-282.304 0-512-229.696-512-512s229.696-512 512-512 512 229.696 512 512-229.696 512-512 512zM512 64c-189.888 0-347.584 138.688-378.24 320h212.736l94.592 94.592 192-256 161.408 161.408h95.744c-30.656-181.312-188.352-320-378.24-320zM741.504 512l-94.592-94.592-192 256-161.408-161.408h-159.744c30.656 181.312 188.352 320 378.24 320s347.584-138.688 378.24-320h-148.736z" />
<glyph unicode="&#xea11;" glyph-name="ui-1_attach-86" d="M320 640v-256c0-105.856 86.144-192 192-192s192 86.144 192 192v288c0 158.784-129.216 288-288 288s-288-129.216-288-288v-352c0-211.776 172.224-384 384-384s384 172.224 384 384v384h-128v-384c0-141.184-114.816-256-256-256s-256 114.816-256 256v352c0 88.256 71.744 160 160 160s160-71.744 160-160v-288c0-35.328-28.672-64-64-64s-64 28.672-64 64v256h-128z" />
<glyph unicode="&#xea12;" glyph-name="ui-1_attach-87" d="M613.888 141.248c-99.776-99.776-262.272-99.776-361.984 0-103.168 103.168-106.944 255.104-8.768 353.344l290.688 290.688c62.336 62.4 163.904 62.464 226.304 0 62.336-62.4 62.336-163.968 0-226.304l-229.952-229.888c-25.024-25.024-65.472-25.024-90.496 0-24.96 24.96-24.96 65.536 0 90.496l177.664 177.664-90.496 90.496-177.664-177.664c-74.88-74.88-74.88-196.608 0-271.488s196.608-74.88 271.488 0l230.016 229.952c112.256 112.32 112.256 294.976 0 407.296-112.192 112.256-294.976 112.256-407.296 0l-290.752-290.752c-147.392-147.456-143.488-382.144 8.768-534.4 74.88-74.88 173.184-112.32 271.488-112.32s196.608 37.44 271.488 112.32l275.008 275.008-90.496 90.496-275.008-274.944z" />
<glyph unicode="&#xea13;" glyph-name="ui-1_bell-53" d="M640 64h-256c0-70.72 57.28-128 128-128s128 57.28 128 128zM960 256h-32c-48 42.688-96 106.688-96 192v192c0 176.704-143.296 320-320 320s-320-143.296-320-320v-192c0-85.312-48-149.312-96-192h-32c-35.328 0-64-28.608-64-64s28.672-64 64-64h896c35.328 0 64 28.608 64 64s-28.672 64-64 64z" />
<glyph unicode="&#xea14;" glyph-name="ui-1_bell-54" d="M832 486.4v153.6c0 176.448-143.552 320-320 320s-320-143.552-320-320v-153.6c-103.616-58.368-192-138.368-192-294.4 0-138.752 234.496-256 512-256s512 117.248 512 256c0 156.544-96.256 240.256-192 294.4zM512 64c-235.072 0-384 90.688-384 127.488 0 29.312 78.784 83.072 210.88 110.784 30.72-64.96 96.448-110.272 173.12-110.272 76.48 0 142.016 45.056 172.864 109.824 131.84-28.352 211.072-82.816 211.072-109.824 0-38.656-150.016-128-383.936-128z" />
<glyph unicode="&#xea15;" glyph-name="ui-1_bell-55" d="M923.008 461.248c-54.976 41.664-91.008 72.192-91.008 114.752v64c0 176.448-143.552 320-320 320s-320-143.552-320-320v-64c0-42.56-36.032-73.088-91.008-114.752-47.36-35.904-100.992-76.544-100.992-141.248 0-178.112 391.872-192 512-192s512 13.888 512 192c0 64.704-53.632 105.344-100.992 141.248zM694.976 72.96c-64.832-6.784-128.576-8.96-182.976-8.96s-118.144 2.176-182.976 8.96c23.808-78.976 96.384-136.96 182.976-136.96s159.168 57.984 182.976 136.96z" />
<glyph unicode="&#xea16;" glyph-name="ui-1_bold-add" d="M640 960h-256v-384h-384v-256h384v-384h256v384h384v256h-384z" />
<glyph unicode="&#xea17;" glyph-name="ui-1_bold-delete" d="M0 576h1024v-256h-1024v256z" />
<glyph unicode="&#xea18;" glyph-name="ui-1_bold-remove" d="M783.552 900.544l-271.552-271.552-271.552 271.552-180.992-180.992 271.552-271.552-271.552-271.552 180.992-180.992 271.552 271.552 271.552-271.552 180.992 180.992-271.552 271.552 271.552 271.552z" />
<glyph unicode="&#xea19;" glyph-name="ui-1_bookmark-add" d="M896 640h-128v-128h-128v-128h128v-128h128v128h128v128h-128zM768-64v198.464c-146.048 29.632-256 158.72-256 313.536s109.952 283.904 256 313.536v70.464c0 70.72-57.28 128-128 128h-512c-70.72 0-128-57.28-128-128v-896l384 192 384-192z" />
<glyph unicode="&#xea1a;" glyph-name="ui-1_bookmark-remove" d="M640 512h384v-128h-384v128zM768-64v198.464c-146.048 29.632-256 158.72-256 313.536s109.952 283.904 256 313.536v70.464c0 70.72-57.28 128-128 128h-512c-70.72 0-128-57.28-128-128v-896l384 192 384-192z" />
<glyph unicode="&#xea1b;" glyph-name="ui-1_calendar-57" d="M960 832h-128v64c0 35.392-28.608 64-64 64s-64-28.608-64-64v-64h-128v64c0 35.392-28.608 64-64 64s-64-28.608-64-64v-64h-128v64c0 35.392-28.608 64-64 64s-64-28.608-64-64v-64h-128c-35.392 0-64-28.608-64-64v-768c0-35.392 28.608-64 64-64h896c35.392 0 64 28.608 64 64v768c0 35.392-28.608 64-64 64zM896 64h-768v448h768v-448z" />
<glyph unicode="&#xea1c;" glyph-name="ui-1_calendar-60" d="M960 832h-128v64c0 35.392-28.608 64-64 64h-64c-35.392 0-64-28.608-64-64v-64h-256v64c0 35.392-28.608 64-64 64h-64c-35.392 0-64-28.608-64-64v-64h-128c-35.392 0-64-28.608-64-64v-768c0-35.392 28.608-64 64-64h896c35.392 0 64 28.608 64 64v768c0 35.392-28.608 64-64 64zM896 64h-768v448h768v-448z" />
<glyph unicode="&#xea1d;" glyph-name="ui-1_check-bold" d="M358.4 422.4l-256 153.6-102.4-102.4 358.4-409.6 665.6 665.6-102.4 102.4z" />
<glyph unicode="&#xea1e;" glyph-name="ui-1_check-circle-07" d="M365.248 493.248c-25.024 25.024-65.472 25.024-90.496 0s-25.024-65.472 0-90.496l128-128c12.48-12.48 28.864-18.752 45.248-18.752s32.768 6.272 45.248 18.752l448 448c25.024 25.024 25.024 65.472 0 90.496s-65.472 25.024-90.496 0l-402.752-402.752-82.752 82.752zM448-64c246.976 0 448 200.96 448 448 0 35.328-28.608 64-64 64s-64-28.672-64-64c0-176.448-143.552-320-320-320s-320 143.552-320 320 143.552 320 320 320c36.48 0 72.32-6.080 106.368-18.112 33.088-11.648 69.888 5.76 81.6 39.104s-5.696 69.888-39.104 81.664c-47.744 16.832-97.856 25.344-148.864 25.344-246.976 0-448-200.96-448-448s201.024-448 448-448z" />
<glyph unicode="&#xea1f;" glyph-name="ui-1_check-circle-08" d="M512 960c-282.752 0-512-229.248-512-512s229.248-512 512-512 512 229.248 512 512-229.248 512-512 512zM448 229.504l-218.496 218.496 90.496 90.496 128-128 256 256 90.496-90.496-346.496-346.496z" />
<glyph unicode="&#xea20;" glyph-name="ui-1_check-curve" d="M1024 729.6l-51.2 102.4c-441.6-130.112-665.6-409.6-665.6-409.6l-204.8 153.6-102.4-102.4 307.2-409.6c233.6 441.6 716.8 665.6 716.8 665.6z" />
<glyph unicode="&#xea21;" glyph-name="ui-1_check-simple" d="M358.4 345.6l-204.8 204.8-153.6-153.6 358.4-358.4 665.6 665.6-153.6 153.6z" />
<glyph unicode="&#xea22;" glyph-name="ui-1_check-small" d="M794.496 576l-90.496 90.496-256-256-128 128-90.496-90.496 218.496-218.496z" />
<glyph unicode="&#xea23;" glyph-name="ui-1_check-square-09" d="M896 960h-768c-70.72 0-128-57.28-128-128v-768c0-70.72 57.28-128 128-128h768c70.72 0 128 57.28 128 128v768c0 70.72-57.28 128-128 128zM448 229.504l-218.496 218.496 90.496 90.496 128-128 256 256 90.496-90.496-346.496-346.496z" />
<glyph unicode="&#xea24;" glyph-name="ui-1_check-square-11" d="M850.752 813.248l-402.752-402.752-82.752 82.752c-25.024 25.024-65.472 25.024-90.496 0s-25.024-65.472 0-90.496l128-128c12.48-12.48 28.864-18.752 45.248-18.752s32.768 6.272 45.248 18.752l448 448c25.024 25.024 25.024 65.472 0 90.496s-65.472 25.024-90.496 0zM64-64h768c35.328 0 64 28.672 64 64v320c0 35.328-28.672 64-64 64s-64-28.672-64-64v-256h-640v640h320c35.328 0 64 28.672 64 64s-28.672 64-64 64h-384c-35.328 0-64-28.672-64-64v-768c0-35.328 28.672-64 64-64z" />
<glyph unicode="&#xea25;" glyph-name="ui-1_check" d="M914.752 813.248l-594.752-594.752-210.752 210.752c-25.024 25.024-65.472 25.024-90.496 0s-25.024-65.472 0-90.496l256-256c12.48-12.48 28.864-18.752 45.248-18.752s32.768 6.272 45.248 18.752l640 640c25.024 25.024 25.024 65.472 0 90.496s-65.472 25.024-90.496 0z" />
<glyph unicode="&#xea26;" glyph-name="ui-1_circle-add" d="M512 960c-282.304 0-512-229.696-512-512s229.696-512 512-512 512 229.696 512 512-229.696 512-512 512zM768 384h-192v-192h-128v192h-192v128h192v192h128v-192h192v-128z" />
<glyph unicode="&#xea27;" glyph-name="ui-1_circle-bold-add" d="M576 704h-128v-192h-192v-128h192v-192h128v192h192v128h-192zM512 960c-282.304 0-512-229.696-512-512s229.696-512 512-512 512 229.696 512 512-229.696 512-512 512zM512 64c-211.776 0-384 172.224-384 384s172.224 384 384 384 384-172.224 384-384-172.224-384-384-384z" />
<glyph unicode="&#xea28;" glyph-name="ui-1_circle-bold-remove" d="M647.744 674.24l-135.744-135.744-135.744 135.744-90.496-90.496 135.744-135.744-135.744-135.744 90.496-90.496 135.744 135.744 135.744-135.744 90.496 90.496-135.744 135.744 135.744 135.744zM512 960c-282.304 0-512-229.696-512-512s229.696-512 512-512 512 229.696 512 512-229.696 512-512 512zM512 64c-211.776 0-384 172.224-384 384s172.224 384 384 384 384-172.224 384-384-172.224-384-384-384z" />
<glyph unicode="&#xea29;" glyph-name="ui-1_circle-delete" d="M512 960c-282.304 0-512-229.696-512-512s229.696-512 512-512 512 229.696 512 512-229.696 512-512 512zM768 384h-512v128h512v-128z" />
<glyph unicode="&#xea2a;" glyph-name="ui-1_circle-remove" d="M512 960c-282.304 0-512-229.696-512-512s229.696-512 512-512 512 229.696 512 512-229.696 512-512 512zM738.24 312.256l-90.496-90.496-135.744 135.744-135.744-135.744-90.496 90.496 135.744 135.744-135.744 135.744 90.496 90.496 135.744-135.744 135.744 135.744 90.496-90.496-135.744-135.744 135.744-135.744z" />
<glyph unicode="&#xea2b;" glyph-name="ui-1_dashboard-29" d="M512 960c-282.752 0-512-229.248-512-512s229.248-512 512-512 512 229.248 512 512-229.248 512-512 512zM512 320c-70.72 0-128 57.28-128 128 0 11.392 1.984 22.208 4.736 32.768l-159.232 159.232 90.496 90.496 159.232-159.232c10.56 2.752 21.376 4.736 32.768 4.736 70.72 0 128-57.28 128-128s-57.28-128-128-128z" />
<glyph unicode="&#xea2c;" glyph-name="ui-1_dashboard-30" d="M512 960c-282.752 0-512-229.248-512-512s229.248-512 512-512 512 229.248 512 512-229.248 512-512 512zM256 384h-128v128h128v-128zM576 64h-128v128h128v-128zM512 320c-70.72 0-128 57.28-128 128 0 26.048 7.872 50.176 21.248 70.4l-107.136 214.208 114.496 57.28 107.328-214.656c66.944-4.224 120.064-59.264 120.064-127.232 0-70.72-57.28-128-128-128zM896 384h-128v128h128v-128z" />
<glyph unicode="&#xea2d;" glyph-name="ui-1_dashboard-half" d="M35.072 128h953.792l13.632 45.696c14.272 47.872 21.504 97.088 21.504 146.304 0 282.304-229.696 512-512 512s-512-229.696-512-512c0-49.216 7.232-98.432 21.44-146.304l13.632-45.696zM512 704c211.776 0 384-172.224 384-384 0-21.376-1.856-42.752-5.44-64h-335.232l-111.872 279.808-118.912-47.616 92.928-232.192h-284.032c-3.584 21.248-5.44 42.624-5.44 64 0 211.776 172.224 384 384 384z" />
<glyph unicode="&#xea2e;" glyph-name="ui-1_dashboard-level" d="M512 960c-282.304 0-512-229.696-512-512s229.696-512 512-512 512 229.696 512 512-229.696 512-512 512zM890.24 384h-334.912l-111.872 279.808-118.912-47.616 92.928-232.192h-283.712c-3.52 20.864-5.76 42.176-5.76 64 0 211.776 172.224 384 384 384s384-172.224 384-384c0-21.824-2.24-43.136-5.76-64z" />
<glyph unicode="&#xea2f;" glyph-name="ui-1_database" d="M512-64c222.976 0 448 59.392 448 192v422.592c-99.712-65.6-253.504-102.592-448-102.592s-348.288 36.992-448 102.592v-422.592c0-132.608 225.024-192 448-192zM512 576c222.976 0 448 59.392 448 192s-225.024 192-448 192-448-59.392-448-192 225.024-192 448-192z" />
<glyph unicode="&#xea30;" glyph-name="ui-1_drop" d="M512-64c188.736 0 384 143.616 384 384 0 225.664-384 640-384 640s-384-414.336-384-640c0-240.384 195.264-384 384-384z" />
<glyph unicode="&#xea31;" glyph-name="ui-1_edit-71" d="M839.744 941.248c-25.024 25.024-65.536 25.024-90.496 0l-749.248-749.248v-256h256l749.248 749.248c25.024 25.024 25.024 65.536 0 90.496l-165.504 165.504z" />
<glyph unicode="&#xea32;" glyph-name="ui-1_edit-72" d="M64-64h192c16.96 0 33.28 6.72 45.248 18.752l704 704c25.024 25.024 25.024 65.472 0 90.496l-192 192c-25.024 25.024-65.472 25.024-90.496 0l-704-704c-12.032-11.968-18.752-28.224-18.752-45.248v-192c0-35.392 28.672-64 64-64zM128 165.504l640 640 101.504-101.504-640-640h-101.504v101.504z" />
<glyph unicode="&#xea33;" glyph-name="ui-1_edit-73" d="M0 64h1024v-128h-1024v128zM749.248 749.248c25.024 25.024 25.024 65.536 0 90.496l-101.504 101.504c-25.024 25.024-65.536 25.024-90.496 0l-557.248-557.248v-192h192l557.248 557.248z" />
<glyph unicode="&#xea34;" glyph-name="ui-1_edit-74" d="M64 192h192c16.96 0 33.28 6.72 45.248 18.752l448 448c25.024 25.024 25.024 65.472 0 90.496l-192 192c-25.024 25.024-65.472 25.024-90.496 0l-448-448c-12.032-11.968-18.752-28.224-18.752-45.248v-192c0-35.392 28.672-64 64-64zM128 421.504l384 384 101.504-101.504-384-384h-101.504v101.504zM0 64h1024v-128h-1024v128z" />
<glyph unicode="&#xea35;" glyph-name="ui-1_edit-75" d="M903.744 941.248c-25.024 25.024-65.536 25.024-90.496 0l-429.248-429.248v-192h192l429.248 429.248c25.024 25.024 25.024 65.536 0 90.496l-101.504 101.504zM960 384c-35.328 0-64-28.608-64-64v-256h-768v768h256c35.328 0 64 28.608 64 64s-28.672 64-64 64h-320c-35.328 0-64-28.608-64-64v-896c0-35.392 28.672-64 64-64h896c35.328 0 64 28.608 64 64v320c0 35.392-28.672 64-64 64z" />
<glyph unicode="&#xea36;" glyph-name="ui-1_edit-76" d="M813.248 941.248c-25.024 25.024-65.472 25.024-90.496 0l-448-448c-12.032-11.968-18.752-28.224-18.752-45.248v-192c0-35.392 28.608-64 64-64h192c17.024 0 33.28 6.72 45.248 18.752l448 448c25.024 25.024 25.024 65.472 0 90.496l-192 192zM485.504 320h-101.504v101.504l384 384 101.504-101.504-384-384zM960 320c-35.392 0-64-28.608-64-64v-192h-768v768h192c35.392 0 64 28.608 64 64s-28.608 64-64 64h-256c-35.392 0-64-28.608-64-64v-896c0-35.392 28.608-64 64-64h896c35.392 0 64 28.608 64 64v256c0 35.392-28.608 64-64 64z" />
<glyph unicode="&#xea37;" glyph-name="ui-1_edit-77" d="M960 512c-35.392 0-64-28.608-64-64v-384h-768v768h384c35.392 0 64 28.608 64 64s-28.608 64-64 64h-448c-35.392 0-64-28.608-64-64v-896c0-35.392 28.608-64 64-64h896c35.392 0 64 28.608 64 64v448c0 35.392-28.608 64-64 64zM914.752 941.248l-512-512c-25.024-25.024-25.024-65.472 0-90.496 12.48-12.48 28.864-18.752 45.248-18.752s32.768 6.272 45.248 18.752l512 512c25.024 25.024 25.024 65.472 0 90.496s-65.472 25.024-90.496 0z" />
<glyph unicode="&#xea38;" glyph-name="ui-1_edit-78" d="M914.752 941.248l-512-512c-25.024-25.024-25.024-65.472 0-90.496 12.48-12.48 28.864-18.752 45.248-18.752s32.768 6.272 45.248 18.752l512 512c25.024 25.024 25.024 65.472 0 90.496s-65.472 25.024-90.496 0zM960 512c-35.392 0-64-28.608-64-64 0-211.776-172.224-384-384-384s-384 172.224-384 384 172.224 384 384 384c35.392 0 64 28.608 64 64s-28.608 64-64 64c-282.304 0-512-229.696-512-512s229.696-512 512-512 512 229.696 512 512c0 35.392-28.608 64-64 64z" />
<glyph unicode="&#xea39;" glyph-name="ui-1_email-83" d="M960 896h-896c-38.4 0-64-25.6-64-64v-89.6l512-288 512 281.6v96c0 38.4-25.6 64-64 64zM480 326.4l-480 268.8v-531.2c0-38.4 25.6-64 64-64h896c38.4 0 64 25.6 64 64v531.2l-480-268.8c-17.92-8.96-46.080-8.96-64 0z" />
<glyph unicode="&#xea3a;" glyph-name="ui-1_email-84" d="M960 896h-896c-35.328 0-64-28.608-64-64v-768c0-35.392 28.672-64 64-64h896c35.328 0 64 28.608 64 64v768c0 35.392-28.672 64-64 64zM896 128h-768v401.728l352.256-201.28c19.712-11.264 43.84-11.264 63.488 0l352.256 201.28v-401.728zM896 677.12l-384-219.456-384 219.456v90.88h768v-90.88z" />
</font>
</defs>
</svg>
